<?xml version="1.0" standalone="no"?>
<!DOCTYPE svg PUBLIC "-//W3C//DTD SVG 1.1//EN" "http://www.w3.org/Graphics/SVG/1.1/DTD/svg11.dtd" >
<svg xmlns="http://www.w3.org/2000/svg" xmlns:xlink="http://www.w3.org/1999/xlink" version="1.1">
<metadata></metadata>
<defs>
<font id="sf_pro_textmedium" horiz-adv-x="1359" >
<font-face units-per-em="2048" ascent="1638" descent="-410" />
<missing-glyph horiz-adv-x="560" />
<glyph horiz-adv-x="0" />
<glyph unicode="&#xd;" horiz-adv-x="0" />
<glyph unicode=" "  horiz-adv-x="560" />
<glyph unicode="&#x09;" horiz-adv-x="560" />
<glyph unicode="&#xa0;" horiz-adv-x="560" />
<glyph unicode="!" horiz-adv-x="670" d="M181 129q0 70 42.5 112t112.5 42q69 0 111 -42t42 -112q0 -68 -42 -110t-111 -42q-70 0 -112.5 42t-42.5 110zM213 1444h243l-20 -966h-202z" />
<glyph unicode="&#x22;" horiz-adv-x="938" d="M169 872v571h193v-571h-193zM577 872v571h192v-571h-192z" />
<glyph unicode="#" horiz-adv-x="1319" d="M37 392l33 178h233l66 319h-241l34 177h241l79 377h170l-76 -377h302l78 377h171l-77 -377h244l-32 -177h-247l-68 -319h254l-32 -178h-255l-80 -392h-172l80 392h-303l-80 -392h-170l79 392h-231zM466 560h314l71 339h-315z" />
<glyph unicode="$" d="M147 402h212q8 -89 75.5 -147.5t179.5 -71.5v456l-89 23q-168 43 -256.5 141.5t-88.5 244.5q0 173 115.5 281.5t318.5 127.5v138h137v-138q194 -17 312 -127t123 -277h-209q-3 83 -65 141.5t-161 70.5v-431l93 -21q188 -46 278.5 -143t90.5 -252q0 -183 -121 -293.5 t-341 -129.5v-131h-137v130q-215 14 -340.5 124t-126.5 284zM394 1066q0 -77 56 -129t164 -74v403q-96 -5 -158 -61.5t-62 -138.5zM751 181q119 7 184 63t65 151q0 86 -60.5 139t-188.5 79v-432z" />
<glyph unicode="%" horiz-adv-x="1643" d="M75 1116q0 158 88.5 257t229.5 99t229.5 -99t88.5 -257t-88.5 -257t-229.5 -99q-140 0 -229 99.5t-89 256.5zM201 0l549 754l480 689h218l-558 -764l-470 -679h-219zM257 1117q0 -91 37 -146t99 -55t99 55t37 146q0 93 -36.5 146t-99.5 53q-62 0 -99 -54t-37 -145z M931 328q0 157 89 256t230 99t229.5 -99t88.5 -256q0 -158 -88.5 -257.5t-229.5 -99.5t-230 99.5t-89 257.5zM1114 328q0 -91 37 -146t99 -55q61 0 98 54.5t37 146.5q0 93 -36.5 146t-98.5 53t-99 -54t-37 -145z" />
<glyph unicode="&#x26;" horiz-adv-x="1481" d="M112 382q0 126 68.5 222t211.5 172q4 2 28 15.5t31 16.5q-99 103 -140 179t-41 155q0 142 109.5 236t274.5 94q166 0 273.5 -92t107.5 -236q0 -112 -72.5 -201t-233.5 -174l331 -344q62 116 62 333v46h195v-54q0 -302 -120 -475l257 -275h-262l-125 132 q-89 -75 -209.5 -117t-251.5 -42q-221 0 -357.5 113t-136.5 296zM326 399q0 -110 83 -177.5t218 -67.5q92 0 178 32t139 86l-381 404q-24 -10 -47 -22q-190 -99 -190 -255zM471 1130q0 -55 33 -109t114 -133q120 60 170.5 115.5t50.5 127.5q0 77 -51 125t-133 48 q-80 0 -132 -49t-52 -125z" />
<glyph unicode="'" horiz-adv-x="531" d="M169 872v571h193v-571h-193z" />
<glyph unicode="(" horiz-adv-x="817" d="M235 603q0 543 289 911h190q-109 -140 -183 -398t-74 -512q0 -256 73.5 -514.5t183.5 -397.5h-190q-289 368 -289 911z" />
<glyph unicode=")" horiz-adv-x="817" d="M103 -308q109 140 183 398.5t74 513.5q0 254 -74 512t-183 398h190q288 -368 288 -911t-288 -911h-190z" />
<glyph unicode="*" horiz-adv-x="1032" d="M143 944l264 121l-264 122l78 145l240 -172l-25 293h160l-25 -293l240 172l78 -145l-263 -122l263 -121l-78 -143l-240 167l25 -288h-160l25 289l-240 -168z" />
<glyph unicode="+" d="M160 484v196h426v423h187v-423h427v-196h-427v-424h-187v424h-426z" />
<glyph unicode="," horiz-adv-x="645" d="M142 -377l93 593h225l-166 -593h-152z" />
<glyph unicode="-" horiz-adv-x="975" d="M160 476v211h656v-211h-656z" />
<glyph unicode="." horiz-adv-x="645" d="M176 132q0 63 42 106t105 43t105 -43t42 -106t-42 -106t-105 -43t-105 43t-42 106z" />
<glyph unicode="/" horiz-adv-x="722" d="M0 -308l527 1822h195l-527 -1822h-195z" />
<glyph unicode="0" horiz-adv-x="1330" d="M132 723q0 357 141 556t393 199q250 0 391 -199.5t141 -557.5q0 -359 -140 -557.5t-392 -198.5q-253 0 -393.5 199t-140.5 559zM358 723q0 -272 80 -417t228 -145t227 144.5t79 417.5q0 270 -80 414.5t-226 144.5t-227 -145t-81 -414z" />
<glyph unicode="1" horiz-adv-x="989" d="M123 946v229l380 268h223v-1443h-224v1202h-17z" />
<glyph unicode="2" horiz-adv-x="1266" d="M144 1023v3q0 199 136 325.5t349 126.5q206 0 341 -117t135 -295q0 -115 -67.5 -227.5t-248.5 -295.5l-321 -325v-17h660v-201h-972v162l488 508q144 150 192 226.5t48 156.5q0 99 -75 165t-187 66q-119 0 -192.5 -71t-73.5 -187v-3h-212z" />
<glyph unicode="3" horiz-adv-x="1315" d="M135 392h215q11 -105 94.5 -167t214.5 -62q132 0 216 68t84 175q0 112 -82 177t-224 65h-182v185h175q116 0 189 64t73 166q0 101 -71 161.5t-189 60.5t-190.5 -61t-81.5 -168h-213q11 196 143 309t349 113q201 0 337.5 -109.5t136.5 -272.5q0 -127 -69.5 -217 t-188.5 -117v-17q147 -17 232 -111.5t85 -239.5q0 -121 -69 -219t-190.5 -154t-269.5 -56q-227 0 -370.5 117t-153.5 310z" />
<glyph unicode="4" horiz-adv-x="1351" d="M116 279v208q168 307 601 956h319v-964h199v-200h-199v-279h-216v279h-704zM331 474h492v772h-13q-254 -368 -479 -758v-14z" />
<glyph unicode="5" horiz-adv-x="1300" d="M153 395h213q13 -105 93 -169t199 -64q135 0 218 82t83 217t-83 219.5t-215 84.5q-92 0 -165 -39t-115 -109h-205l76 826h842v-200h-667l-38 -423h17q102 131 305 131q206 0 336.5 -135.5t130.5 -348.5q0 -224 -144.5 -363t-377.5 -139q-215 0 -354 120t-149 310z" />
<glyph unicode="6" horiz-adv-x="1339" d="M127 703q0 367 150.5 571t421.5 204q191 0 325 -105.5t167 -282.5h-225q-27 88 -99 139t-170 51q-166 0 -258.5 -143.5t-96.5 -404.5h17q52 104 151.5 161t227.5 57q206 0 340 -136t134 -345q0 -221 -147 -362.5t-376 -141.5q-160 0 -281.5 77t-192.5 222 q-88 173 -88 439zM384 466q0 -129 87 -216.5t216 -87.5t216 86t87 214q0 131 -84.5 215t-217.5 84q-132 0 -218 -83.5t-86 -211.5z" />
<glyph unicode="7" horiz-adv-x="1193" d="M97 1244v199h983v-203l-628 -1240h-235l636 1228v16h-756z" />
<glyph unicode="8" horiz-adv-x="1349" d="M132 386q0 138 83.5 239t222.5 129v17q-113 29 -180.5 115.5t-67.5 202.5q0 171 136 280t348 109t348 -109t136 -280q0 -117 -67 -203t-181 -115v-17q139 -26 223 -126.5t84 -240.5q0 -187 -151 -304.5t-392 -117.5t-391.5 117t-150.5 304zM361 405q0 -113 87 -183.5 t226 -70.5t226 70.5t87 183.5t-87 184t-226 71t-226 -71t-87 -184zM411 1067q0 -100 72.5 -162t190.5 -62t191 62t73 162q0 101 -73 164t-191 63t-190.5 -63t-72.5 -164z" />
<glyph unicode="9" horiz-adv-x="1339" d="M127 974q0 221 146.5 362.5t376.5 141.5q160 0 282 -76.5t192 -221.5q89 -175 89 -439q0 -367 -150.5 -571.5t-421.5 -204.5q-192 0 -326 106t-167 283h226q26 -88 98 -139t171 -51q166 0 258.5 143.5t95.5 404.5h-8h-5h-4q-52 -104 -151 -161.5t-227 -57.5 q-206 0 -340.5 136t-134.5 345zM350 982q0 -131 84 -215t217 -84q132 0 218 83t86 211q0 130 -87 217t-215 87q-129 0 -216 -86t-87 -213z" />
<glyph unicode=":" horiz-adv-x="645" d="M176 132q0 63 42 106t105 43t105 -43t42 -106t-42 -106t-105 -43t-105 43t-42 106zM176 887q0 64 42 106.5t105 42.5q64 0 105.5 -42.5t41.5 -106.5q0 -63 -42 -106t-105 -43t-105 43t-42 106z" />
<glyph unicode=";" horiz-adv-x="645" d="M119 -377l95 593h225l-164 -593h-156zM176 887q0 64 42 106.5t105 42.5q64 0 105.5 -42.5t41.5 -106.5q0 -63 -42 -106t-105 -43t-105 43t-42 106z" />
<glyph unicode="&#x3c;" d="M227 503v183l906 503v-236l-690 -350v-17l690 -350v-236z" />
<glyph unicode="=" d="M164 270v197h1031v-197h-1031zM164 698v197h1031v-197h-1031z" />
<glyph unicode="&#x3e;" d="M227 0v236l689 350v17l-689 350v236l906 -503v-183z" />
<glyph unicode="?" horiz-adv-x="1083" d="M79 1053q7 179 125 290.5t329 111.5q197 0 319.5 -105t122.5 -269q0 -216 -210 -342q-96 -57 -131 -105.5t-35 -124.5v-60h-207l-1 76q-4 106 42 179.5t151 136.5q92 55 128 105.5t36 125.5q0 83 -62 136.5t-164 53.5q-103 0 -166 -56.5t-70 -152.5h-207zM353 129 q0 69 43 111.5t112 42.5t111.5 -42t42.5 -112q0 -68 -42.5 -110t-111.5 -42t-112 42t-43 110z" />
<glyph unicode="@" horiz-adv-x="1887" d="M137 607q0 183 61 338.5t170 265t264 170.5t338 61q235 0 418 -93t284.5 -262t101.5 -385q0 -241 -103 -383t-279 -142q-90 0 -152.5 44.5t-74.5 117.5h-17q-31 -76 -94.5 -116t-151.5 -40q-156 0 -251.5 116.5t-95.5 306.5q0 182 95.5 297t248.5 115q79 0 141.5 -38 t91.5 -104h17v121h170v-562q0 -53 27.5 -82.5t78.5 -29.5q88 0 140.5 101.5t52.5 271.5q0 271 -182 437.5t-477 166.5q-192 0 -344 -88.5t-237 -248t-85 -361.5q0 -313 190.5 -499t510.5 -186q94 0 180.5 11.5t131.5 30.5v-142q-135 -44 -319 -44q-388 0 -619 227t-231 607z M739 602q0 -121 52 -189.5t143 -68.5q95 0 151 69.5t56 188.5q0 118 -55.5 187t-149.5 69q-93 0 -145 -67.5t-52 -188.5z" />
<glyph unicode="A" horiz-adv-x="1423" d="M70 0l521 1443h241l521 -1443h-238l-132 383h-550l-133 -383h-230zM490 571h436l-209 610h-17z" />
<glyph unicode="B" horiz-adv-x="1373" d="M181 0v1443h580q203 0 318.5 -96.5t115.5 -263.5q0 -113 -73 -202.5t-180 -107.5v-17q146 -15 235.5 -110.5t89.5 -236.5q0 -191 -131 -300t-362 -109h-593zM405 190h324q151 0 230 60t79 175q0 113 -82 171.5t-240 58.5h-311v-465zM405 832h266q148 0 224.5 53.5 t76.5 156.5q0 100 -69.5 155.5t-193.5 55.5h-304v-421z" />
<glyph unicode="C" horiz-adv-x="1485" d="M122 721q0 351 174.5 554t475.5 203q238 0 405.5 -139.5t194.5 -360.5h-223q-32 133 -133.5 212t-243.5 79q-194 0 -307.5 -147.5t-113.5 -400.5q0 -252 113.5 -399.5t308.5 -147.5q143 0 244.5 72t131.5 194h223q-30 -214 -194 -344.5t-405 -130.5q-301 0 -476 203 t-175 553z" />
<glyph unicode="D" horiz-adv-x="1502" d="M181 0v1443h521q321 0 500 -188.5t179 -528.5q0 -346 -178 -536t-501 -190h-521zM405 204h272q227 0 351.5 135.5t124.5 383.5q0 244 -125.5 380t-350.5 136h-272v-1035z" />
<glyph unicode="E" horiz-adv-x="1239" d="M181 0v1443h916v-204h-692v-408h655v-194h-655v-433h692v-204h-916z" />
<glyph unicode="F" horiz-adv-x="1191" d="M181 0v1443h901v-204h-677v-443h620v-198h-620v-598h-224z" />
<glyph unicode="G" horiz-adv-x="1539" d="M122 722q0 345 181 550.5t484 205.5q246 0 412 -129.5t203 -348.5h-225q-42 131 -142 200t-248 69q-200 0 -318 -147.5t-118 -397.5q0 -255 118.5 -402.5t322.5 -147.5q177 0 288 99t112 259v31h-372v188h592v-180q0 -277 -169.5 -441.5t-453.5 -164.5q-307 0 -487 204 t-180 553z" />
<glyph unicode="H" horiz-adv-x="1550" d="M181 0v1443h224v-606h741v606h223v-1443h-223v633h-741v-633h-224z" />
<glyph unicode="I" horiz-adv-x="585" d="M181 0v1443h224v-1443h-224z" />
<glyph unicode="J" horiz-adv-x="1148" d="M82 375h220q2 -89 62 -144t156 -55q108 0 166 63.5t58 183.5v1020h224v-1021q0 -217 -118.5 -337t-327.5 -120q-197 0 -318.5 112.5t-121.5 297.5z" />
<glyph unicode="K" horiz-adv-x="1386" d="M181 0v1443h224v-676h16l597 676h265l-558 -627l606 -816h-280l-484 655l-162 -181v-474h-224z" />
<glyph unicode="L" horiz-adv-x="1183" d="M181 0v1443h224v-1237h676v-206h-900z" />
<glyph unicode="M" horiz-adv-x="1822" d="M181 0v1443h262l459 -1096h17l460 1096h262v-1443h-208v1042h-14l-423 -1000h-170l-423 1000h-14v-1042h-208z" />
<glyph unicode="N" horiz-adv-x="1539" d="M181 0v1443h202l741 -1025h16v1025h218v-1443h-202l-741 1025h-16v-1025h-218z" />
<glyph unicode="O" horiz-adv-x="1590" d="M122 722q0 349 181.5 552.5t492.5 203.5q312 0 492 -203.5t180 -552.5t-180 -553t-492 -204q-313 0 -493.5 203.5t-180.5 553.5zM351 722q0 -251 119 -399.5t326 -148.5q205 0 324 148.5t119 399.5q0 252 -119 399.5t-324 147.5q-204 0 -324.5 -148t-120.5 -399z" />
<glyph unicode="P" horiz-adv-x="1329" d="M181 0v1443h565q212 0 344 -133.5t132 -347.5q0 -211 -135 -343.5t-348 -132.5h-334v-486h-224zM405 683h282q145 0 225.5 72.5t80.5 206.5q0 137 -79 210t-227 73h-282v-562z" />
<glyph unicode="Q" horiz-adv-x="1590" d="M122 721q0 350 181.5 553.5t492.5 203.5q310 0 491 -203.5t181 -553.5q0 -206 -63.5 -363.5t-181.5 -248.5l181 -262h-234l-118 159q-115 -41 -256 -41q-312 0 -493 202.5t-181 553.5zM352 721q0 -253 119.5 -400t325.5 -147q70 0 136 18l-181 251h229l108 -134 q72 62 111 168t39 244q0 252 -120 400t-323 148q-204 0 -324 -147.5t-120 -400.5z" />
<glyph unicode="R" horiz-adv-x="1368" d="M181 0v1443h571q218 0 348 -120.5t130 -323.5q0 -146 -74.5 -256.5t-205.5 -155.5l324 -587h-259l-294 550h-316v-550h-224zM405 741h322q130 0 201.5 66t71.5 187q0 118 -74.5 185t-204.5 67h-316v-505z" />
<glyph unicode="S" horiz-adv-x="1333" d="M113 388h222q14 -103 107.5 -163.5t238.5 -60.5q135 0 223.5 62.5t88.5 158.5q0 82 -65.5 134.5t-209.5 86.5l-186 45q-196 46 -288 143t-92 256q0 193 144.5 310.5t380.5 117.5q220 0 365 -116t155 -298h-218q-16 100 -97.5 158t-207.5 58q-133 0 -214 -59t-81 -156 q0 -77 61.5 -125t202.5 -81l159 -39q222 -52 320 -147.5t98 -258.5q0 -207 -150 -328t-406 -121q-240 0 -389.5 115t-161.5 308z" />
<glyph unicode="T" horiz-adv-x="1317" d="M93 1239v204h1131v-204h-453v-1239h-224v1239h-454z" />
<glyph unicode="U" horiz-adv-x="1538" d="M185 497v946h224v-926q0 -154 95.5 -248t264.5 -94q170 0 265.5 94t95.5 248v926h224v-946q0 -238 -158.5 -385t-426.5 -147t-426 147t-158 385z" />
<glyph unicode="V" horiz-adv-x="1415" d="M70 1443h244l389 -1163h17l387 1163h238l-513 -1443h-246z" />
<glyph unicode="W" horiz-adv-x="2013" d="M89 1443h233l265 -1105h14l301 1105h208l303 -1105h14l264 1105h233l-390 -1443h-211l-310 1059h-14l-309 -1059h-212z" />
<glyph unicode="X" horiz-adv-x="1427" d="M89 0l482 726l-477 717h267l351 -544h17l357 544h252l-490 -723l481 -720h-262l-354 534h-17l-359 -534h-248z" />
<glyph unicode="Y" horiz-adv-x="1383" d="M71 1443h249l363 -625h17l363 625h249l-509 -861v-582h-224v582z" />
<glyph unicode="Z" horiz-adv-x="1365" d="M141 0v161l784 1061v17h-760v204h1041v-161l-780 -1061v-17h799v-204h-1084z" />
<glyph unicode="[" horiz-adv-x="817" d="M262 -308v1822h477v-174h-268v-1475h268v-173h-477z" />
<glyph unicode="\" horiz-adv-x="722" d="M0 1514h197l525 -1822h-197z" />
<glyph unicode="]" horiz-adv-x="817" d="M77 -135h269v1475h-269v174h478v-1822h-478v173z" />
<glyph unicode="^" horiz-adv-x="1014" d="M95 776l304 638h215l304 -638h-196l-207 461h-17l-206 -461h-197z" />
<glyph unicode="_" horiz-adv-x="926" d="M-7 -107h941v-171h-941v171z" />
<glyph unicode="`" horiz-adv-x="1095" d="M295 1615h252l251 -344h-221z" />
<glyph unicode="a" horiz-adv-x="1158" d="M94 308q0 146 105 229.5t300 95.5l295 17v94q0 87 -57 133.5t-166 46.5q-90 0 -149.5 -31.5t-77.5 -89.5h-208q16 140 137.5 223.5t307.5 83.5q204 0 315.5 -96.5t111.5 -269.5v-744h-207v153h-17q-49 -82 -134.5 -126.5t-192.5 -44.5q-160 0 -261.5 89.5t-101.5 236.5z M310 318q0 -72 56 -113.5t146 -41.5q121 0 201.5 68t80.5 170v91l-266 -17q-112 -7 -165 -46t-53 -111z" />
<glyph unicode="b" horiz-adv-x="1285" d="M166 0v1514h215v-598h17q43 89 133 140t202 51q207 0 328.5 -151.5t121.5 -410.5t-122 -411t-328 -152q-114 0 -204.5 50t-139.5 140h-16v-172h-207zM377 544q1 -171 79.5 -270t214.5 -99t213.5 98.5t77.5 271.5q0 172 -77.5 270.5t-213.5 98.5q-135 0 -214 -99.5 t-80 -270.5z" />
<glyph unicode="c" horiz-adv-x="1167" d="M102 548q0 262 136 412t374 150q199 0 321.5 -104t144.5 -273h-209q-20 83 -86.5 134t-170.5 51q-135 0 -212.5 -98t-77.5 -272q0 -176 77.5 -276.5t212.5 -100.5q103 0 169.5 46t87.5 133h209q-21 -168 -144 -269.5t-321 -101.5q-238 0 -374.5 151.5t-136.5 417.5z" />
<glyph unicode="d" horiz-adv-x="1285" d="M102 545q0 258 122.5 410t329.5 152q112 0 201 -50.5t133 -140.5h16v598h215v-1514h-206v172h-17q-49 -89 -139.5 -139.5t-202.5 -50.5q-208 0 -330 152t-122 411zM324 545q0 -173 77.5 -271.5t213.5 -98.5t214.5 99t78.5 270q0 170 -79 270t-214 100 q-136 0 -213.5 -98.5t-77.5 -270.5z" />
<glyph unicode="e" horiz-adv-x="1192" d="M102 541q0 261 136 415t366 154q227 0 356.5 -146t129.5 -403v-75h-769v-12q5 -144 83 -228t207 -84q197 0 259 132h207q-37 -147 -161.5 -231t-310.5 -84q-234 0 -368.5 150.5t-134.5 411.5zM321 645h550q-4 129 -76.5 205.5t-191.5 76.5t-196 -77t-86 -205z" />
<glyph unicode="f" horiz-adv-x="775" d="M54 903v181h179v117q0 323 336 323q70 0 128 -11v-169q-30 6 -83 6q-89 0 -129 -40t-40 -122v-104h243v-181h-240v-903h-215v903h-179z" />
<glyph unicode="g" horiz-adv-x="1274" d="M101 557q0 250 122 400t330 150q112 0 204 -51.5t138 -140.5h17v174h206v-1098q0 -187 -136 -297t-367 -110q-202 0 -328 83.5t-143 223.5h220q14 -60 80.5 -95t173.5 -35q134 0 209.5 60.5t75.5 168.5v209h-16q-49 -88 -136 -135.5t-200 -47.5q-207 0 -328.5 147.5 t-121.5 393.5zM323 558q0 -165 76 -260.5t213 -95.5t216 96t79 260q0 163 -79 259.5t-216 96.5t-213 -95.5t-76 -260.5z" />
<glyph unicode="h" horiz-adv-x="1249" d="M166 0v1514h213v-600h17q40 93 125.5 144t206.5 51q175 0 275 -106.5t100 -299.5v-703h-215v650q0 130 -59 196t-174 66q-130 0 -202 -75t-72 -201v-636h-215z" />
<glyph unicode="i" horiz-adv-x="534" d="M128 1411q0 56 39.5 94t99.5 38t99.5 -38t39.5 -94t-39.5 -93.5t-99.5 -37.5t-99.5 37.5t-39.5 93.5zM160 0v1089h214v-1089h-214z" />
<glyph unicode="j" horiz-adv-x="534" d="M-25 -191h30q85 0 120 34t35 114v1132h214v-1134q0 -167 -86.5 -247t-264.5 -80q-43 0 -48 1v180zM128 1411q0 56 39.5 94t99.5 38t99.5 -38t39.5 -94t-39.5 -93.5t-99.5 -37.5t-99.5 37.5t-39.5 93.5z" />
<glyph unicode="k" horiz-adv-x="1155" d="M166 0v1514h215v-879h17l432 454h254l-448 -467l478 -622h-264l-374 480l-95 -90v-390h-215z" />
<glyph unicode="l" horiz-adv-x="547" d="M166 0v1514h215v-1514h-215z" />
<glyph unicode="m" horiz-adv-x="1824" d="M156 0v1089h207v-175h16q36 93 115.5 144.5t187.5 51.5q109 0 186 -52t114 -144h17q42 90 130.5 143t200.5 53q165 0 256.5 -95t91.5 -265v-750h-215v694q0 219 -211 219q-103 0 -166.5 -65t-63.5 -163v-685h-211v715q0 92 -57 145t-153 53q-98 0 -164 -71t-66 -176v-666 h-215z" />
<glyph unicode="n" horiz-adv-x="1227" d="M156 0v1089h207v-173h16q85 194 325 194q182 0 279.5 -105t97.5 -300v-705h-215v651q0 262 -235 262q-119 0 -189.5 -74.5t-70.5 -201.5v-637h-215z" />
<glyph unicode="o" horiz-adv-x="1231" d="M102 545q0 263 137.5 414t376.5 151q238 0 375.5 -151t137.5 -414q0 -264 -137 -415t-376 -151q-240 0 -377 151t-137 415zM324 545q0 -179 76 -277t216 -98q139 0 215.5 98.5t76.5 276.5q0 177 -76.5 275.5t-215.5 98.5q-140 0 -216 -98t-76 -276z" />
<glyph unicode="p" horiz-adv-x="1275" d="M156 -362v1451h207v-180h16q49 93 140 145.5t202 52.5q208 0 330 -151.5t122 -410.5t-121.5 -411t-328.5 -152q-116 0 -204 48.5t-131 134.5h-17v-527h-215zM367 544q0 -170 79 -269.5t214 -99.5q137 0 214.5 98.5t77.5 271.5t-77.5 271t-213.5 98t-215 -99.5t-79 -270.5 z" />
<glyph unicode="q" horiz-adv-x="1275" d="M102 545q0 257 122.5 409.5t328.5 152.5q111 0 202.5 -53.5t138.5 -144.5h17v180h208v-1451h-216v527h-17q-102 -183 -335 -183q-207 0 -328 151.5t-121 411.5zM324 545q0 -174 76 -272t212 -98q137 0 216 99t79 270q0 170 -79 270t-215 100t-212.5 -98t-76.5 -271z" />
<glyph unicode="r" horiz-adv-x="820" d="M156 0v1089h207v-167h16q23 81 105.5 133t188.5 52q61 0 96 -9v-212q-39 13 -120 13q-123 0 -200.5 -71t-77.5 -185v-643h-215z" />
<glyph unicode="s" horiz-adv-x="1104" d="M103 289h215q21 -64 81 -100t156 -36q101 0 165 41t64 106q0 95 -160 133l-190 44q-156 37 -229.5 110t-73.5 194q0 144 119 236.5t304 92.5q184 0 297 -81t129 -225h-206q-15 61 -72.5 96t-147.5 35q-91 0 -151 -39.5t-60 -102.5q0 -49 42 -81t131 -52l181 -42 q157 -36 230.5 -107t73.5 -190q0 -152 -127 -247t-324 -95q-194 0 -313.5 82.5t-133.5 227.5z" />
<glyph unicode="t" horiz-adv-x="780" d="M59 903v181h173v276h215v-276h236v-181h-236v-560q0 -85 37 -124.5t117 -39.5q32 0 82 5v-179q-64 -11 -117 -11q-179 0 -256.5 68t-77.5 226v615h-173z" />
<glyph unicode="u" horiz-adv-x="1230" d="M146 382v707h215v-651q0 -133 55.5 -196.5t173.5 -63.5q129 0 199 72.5t70 201.5v637h215v-1089h-207v173h-17q-83 -194 -329 -194q-180 0 -277.5 105t-97.5 298z" />
<glyph unicode="v" horiz-adv-x="1140" d="M62 1089h230l271 -859h17l270 859h228l-392 -1089h-231z" />
<glyph unicode="w" horiz-adv-x="1640" d="M65 1089h218l195 -831h16l224 831h206l224 -831h17l194 831h215l-299 -1089h-223l-225 802h-17l-224 -802h-221z" />
<glyph unicode="x" horiz-adv-x="1117" d="M70 1089h251l234 -384h17l232 384h239l-359 -538l363 -551h-247l-237 386h-16l-238 -386h-236l361 542z" />
<glyph unicode="y" horiz-adv-x="1152" d="M64 1089h234l273 -865h17l272 865h228l-406 -1134q-70 -198 -160.5 -274t-257.5 -76q-56 0 -89 5v185q23 -4 70 -4q77 0 123 35t74 117l16 53z" />
<glyph unicode="z" horiz-adv-x="1124" d="M131 0v146l599 744v17h-595v182h852v-157l-586 -733v-17h592v-182h-862z" />
<glyph unicode="{" horiz-adv-x="817" d="M77 488v232q126 1 176 47t50 162v227q0 185 90.5 271.5t283.5 86.5h62v-176h-41q-102 0 -146 -48.5t-44 -161.5v-269q0 -215 -234 -241v-28q234 -26 234 -241v-272q0 -113 44 -161.5t146 -48.5h41v-175h-62q-193 0 -283.5 87t-90.5 273v227q0 116 -50 162t-176 47z" />
<glyph unicode="|" horiz-adv-x="722" d="M265 -308v1822h192v-1822h-192z" />
<glyph unicode="}" horiz-adv-x="817" d="M77 -133h42q101 0 145 48.5t44 161.5v272q0 215 235 241v28q-235 26 -235 241v269q0 113 -43.5 161.5t-145.5 48.5h-42v176h62q193 0 283.5 -86.5t90.5 -271.5v-227q0 -115 50.5 -161.5t175.5 -47.5v-232q-125 -1 -175.5 -47.5t-50.5 -161.5v-227q0 -186 -90.5 -273 t-283.5 -87h-62v175z" />
<glyph unicode="~" horiz-adv-x="1210" d="M91 544q-1 183 78.5 282.5t232.5 99.5q65 0 124 -30t126 -98q50 -50 84 -70.5t66 -20.5q125 0 134 179h183q1 -186 -77 -284t-228 -98q-68 0 -127.5 29.5t-126.5 96.5q-52 52 -85 72t-67 20q-124 0 -133 -178h-184z" />
<glyph unicode="&#xa1;" horiz-adv-x="670" d="M181 981q0 69 42.5 111t112.5 42q69 0 111 -42t42 -111t-42 -111t-111 -42q-70 0 -112.5 42t-42.5 111zM213 -333l21 966h202l20 -966h-243z" />
<glyph unicode="&#xa2;" d="M160 714q0 223 120.5 371t316.5 182v178h197v-175q163 -25 273.5 -124t130.5 -246h-209q-28 86 -104 135.5t-183 49.5q-139 0 -230.5 -101.5t-91.5 -269.5q0 -171 91.5 -273.5t230.5 -102.5q116 0 190 47t97 132h209q-20 -149 -129 -245.5t-275 -118.5v-176h-197v179 q-197 34 -317 182.5t-120 375.5z" />
<glyph unicode="&#xa3;" d="M133 0v190q133 26 219.5 121t86.5 217q0 53 -15 116h-290v174h231q-61 158 -61 254q0 191 140.5 298.5t391.5 107.5q89 0 174 -14.5t137 -36.5v-197q-42 22 -125 37.5t-167 15.5q-152 0 -238 -61t-86 -169q0 -87 54 -235h451v-174h-395q13 -55 13 -103q0 -109 -56 -196 t-141 -130v-16h760v-199h-1084z" />
<glyph unicode="&#xa4;" d="M170 271l160 162q-62 102 -62 220t62 220l-160 160l127 135l162 -162q101 66 221 66t222 -66l160 162l128 -135l-159 -160q62 -102 62 -220q0 -119 -62 -221l159 -161l-128 -135l-161 163q-101 -66 -221 -66t-221 66l-162 -163zM427 653q0 -103 74.5 -177t178.5 -74 t179 74t75 177q0 102 -75 176t-179 74q-103 0 -178 -74t-75 -176z" />
<glyph unicode="&#xa5;" d="M59 1443h249l363 -625h17l363 625h249l-446 -749h212v-150h-274v-152h274v-150h-274v-242h-224v242h-275v150h275v152h-275v150h213z" />
<glyph unicode="&#xa6;" horiz-adv-x="722" d="M265 -308v728h192v-728h-192zM265 786v728h192v-728h-192z" />
<glyph unicode="&#xa7;" horiz-adv-x="1032" d="M90 534q0 95 58.5 165t162.5 100v17q-215 90 -215 273q0 145 114.5 234.5t300.5 89.5q172 0 283 -83.5t126 -223.5h-201q-9 60 -66.5 96.5t-144.5 36.5q-92 0 -148.5 -39.5t-56.5 -104.5q0 -50 41.5 -84t135.5 -61l152 -47q162 -49 236 -117.5t74 -170.5 q0 -100 -68 -177.5t-178 -103.5v-17q243 -70 243 -261q0 -145 -117 -235.5t-303 -90.5q-177 0 -293.5 87.5t-125.5 227.5h204q9 -63 70.5 -102t151.5 -39q93 0 151 40t58 105q0 50 -42.5 84t-137.5 60l-154 47q-162 48 -236.5 118t-74.5 176zM295 578q0 -55 42.5 -95.5 t118.5 -58.5l92 -27q80 4 135 52.5t55 115.5q0 56 -41.5 96t-118.5 58l-92 27q-79 -4 -135 -53t-56 -115z" />
<glyph unicode="&#xa8;" horiz-adv-x="1122" d="M214 1399q0 57 38.5 96t95.5 39q56 0 94.5 -39t38.5 -96t-38.5 -95.5t-94.5 -38.5q-57 0 -95.5 38.5t-38.5 95.5zM641 1399q0 57 39 96t95 39t94.5 -39t38.5 -96t-38.5 -95.5t-94.5 -38.5t-95 38.5t-39 95.5z" />
<glyph unicode="&#xa9;" horiz-adv-x="1742" d="M80 638q0 164 61.5 311t166.5 252t252 166.5t311 61.5q220 0 401.5 -104t285.5 -285.5t104 -401.5t-104 -401.5t-285.5 -286t-401.5 -104.5q-164 0 -311 61.5t-252 167t-166.5 252.5t-61.5 311zM229 638q0 -178 84.5 -325t232 -231.5t325.5 -84.5q134 0 253 49.5 t204.5 135t135 204.5t49.5 252t-49.5 252t-135 204t-204.5 134.5t-253 49.5q-179 0 -326.5 -84.5t-231.5 -231.5t-84 -324zM497 639q0 187 105.5 298t284.5 111q144 0 242 -77.5t116 -206.5h-157q-16 65 -70 104t-130 39q-105 0 -166 -72t-61 -196q0 -126 61 -198.5 t166 -72.5q80 0 132 36t68 101h157q-17 -128 -113.5 -203t-243.5 -75q-180 0 -285.5 111t-105.5 301z" />
<glyph unicode="&#xaa;" horiz-adv-x="974" d="M91 789q0 125 89.5 196.5t258.5 81.5l231 14v77q1 64 -46.5 100t-132.5 36q-69 0 -114 -26t-55 -72h-196q10 124 110.5 196t261.5 72q174 0 272.5 -82.5t98.5 -228.5v-624h-192v117h-17q-37 -66 -108 -102.5t-161 -36.5q-136 0 -218 77t-82 205zM294 800q0 -60 44 -95 t119 -35q93 0 154.5 54t61.5 136v85l-206 -15q-173 -12 -173 -130z" />
<glyph unicode="&#xab;" horiz-adv-x="1411" d="M171 561v8l350 414h228l-350 -410v-14l350 -411h-230zM661 561v8l351 414h228l-350 -410v-14l350 -411h-231z" />
<glyph unicode="&#xac;" d="M188 484v196h983v-583h-186v387h-797z" />
<glyph unicode="&#xad;" horiz-adv-x="975" d="M160 476v211h656v-211h-656z" />
<glyph unicode="&#xae;" horiz-adv-x="1260" d="M105 970q0 144 70 265t190.5 191t264.5 70t265 -70t190.5 -191t69.5 -265q0 -219 -153 -372.5t-372 -153.5q-144 0 -264.5 70t-190.5 191t-70 265zM220 970q0 -170 119.5 -289t290.5 -119q172 0 291 119t119 289q0 171 -119 289.5t-291 118.5q-171 0 -290.5 -118.5 t-119.5 -289.5zM426 733v494h251q77 0 127 -43.5t50 -111.5q0 -119 -112 -149l134 -190h-130l-123 175h-89v-175h-108zM534 998h115q87 0 87 68q0 65 -85 65h-117v-133z" />
<glyph unicode="&#xaf;" horiz-adv-x="1048" d="M176 1299v155h696v-155h-696z" />
<glyph unicode="&#xb0;" horiz-adv-x="909" d="M117 1122q0 144 96.5 242.5t240.5 98.5q145 0 241.5 -98.5t96.5 -242.5q0 -143 -96.5 -241.5t-241.5 -98.5q-144 0 -240.5 98.5t-96.5 241.5zM263 1122q0 -81 52.5 -136t138.5 -55t139.5 55t53.5 136q0 82 -53.5 136.5t-139.5 54.5q-85 0 -138 -54.5t-53 -136.5z" />
<glyph unicode="&#xb1;" d="M174 94v182h1011v-182h-1011zM174 657v174h413v266h185v-266h413v-174h-413v-267h-185v267h-413z" />
<glyph unicode="&#xb2;" horiz-adv-x="857" d="M90 1531v4q0 134 92.5 217t242.5 83q145 0 235.5 -74.5t90.5 -194.5q0 -79 -46.5 -152.5t-169.5 -182.5l-160 -147v-17h390v-169h-663v144l292 279q96 91 128.5 137t32.5 92q0 53 -38.5 87t-99.5 34q-63 0 -102.5 -37.5t-39.5 -98.5v-4h-185z" />
<glyph unicode="&#xb3;" horiz-adv-x="888" d="M88 1165h188q5 -56 49.5 -90t116.5 -34q71 0 115 35t44 90q0 58 -43 91t-119 33h-113v146h111q63 0 102 33t39 86q0 52 -39 83.5t-103 31.5t-104 -33.5t-45 -90.5h-184q4 131 95.5 209t242.5 78q143 0 235 -69.5t92 -178.5q0 -78 -47 -134.5t-123 -70.5v-17 q94 -8 149.5 -66.5t55.5 -148.5q0 -121 -101.5 -198.5t-259.5 -77.5q-157 0 -253.5 80t-100.5 213z" />
<glyph unicode="&#xb4;" horiz-adv-x="1095" d="M276 1271l251 344h252l-281 -344h-222z" />
<glyph unicode="&#xb5;" horiz-adv-x="1296" d="M156 -362v1451h215v-650q0 -261 228 -261q118 0 189 74t71 199v638h215v-788q0 -71 21.5 -98t74.5 -27q23 0 50 5v-178q-43 -13 -99 -13q-113 0 -168 40t-74 136l-3 13h-17q-35 -100 -100 -150t-169 -50q-147 0 -202 107h-17v-448h-215z" />
<glyph unicode="&#xb6;" horiz-adv-x="1414" d="M154 975q0 203 140 335.5t353 132.5h235v-1680h-216v754h-20q-210 0 -351 131t-141 327zM1036 -237v1680h216v-1680h-216z" />
<glyph unicode="&#xb7;" horiz-adv-x="663" d="M182 736q0 65 43 108.5t107 43.5t107 -43.5t43 -108.5q0 -64 -43 -108t-107 -44t-107 44t-43 108z" />
<glyph unicode="&#xb8;" horiz-adv-x="1095" d="M363 -349q46 -14 120 -14q116 0 116 67q0 32 -33 46.5t-109 14.5h-59v97l68 162h136v-24l-48 -122q99 -2 153.5 -46t54.5 -123q0 -89 -67 -142t-185 -53q-85 0 -147 17v120z" />
<glyph unicode="&#xb9;" horiz-adv-x="699" d="M86 1462v188q89 67 234 162h197v-914h-196v715h-17q-11 -7 -113.5 -78t-104.5 -73z" />
<glyph unicode="&#xba;" horiz-adv-x="1054" d="M90 985q0 221 117.5 349.5t319.5 128.5q203 0 319.5 -127.5t116.5 -350.5q0 -224 -116 -351t-320 -127t-320.5 127.5t-116.5 350.5zM300 985q0 -145 59 -224.5t168 -79.5q108 0 167.5 79.5t59.5 224.5t-59.5 224.5t-167.5 79.5t-167.5 -80t-59.5 -224z" />
<glyph unicode="&#xbb;" horiz-adv-x="1411" d="M171 148l350 411v14l-350 410h228l351 -414v-8l-348 -413h-231zM662 148l350 411v14l-350 410h228l350 -414v-8l-348 -413h-230z" />
<glyph unicode="&#xbc;" horiz-adv-x="2051" d="M86 1093v188q89 67 234 162h197v-914h-196v715h-17q-11 -7 -113.5 -78t-104.5 -73zM528 0l356 754l303 689h205l-347 -730l-312 -713h-205zM1200 154v173q48 93 125.5 216t245.5 371h280v-595h117v-161h-120v-158h-185v154h-463zM1379 314h285v441h-8 q-210 -314 -277 -435v-6z" />
<glyph unicode="&#xbd;" horiz-adv-x="2055" d="M86 1093v188q89 67 234 162h197v-914h-196v715h-17q-11 -7 -113.5 -78t-104.5 -73zM528 0l356 754l303 689h205l-347 -730l-312 -713h-205zM1288 633v4q0 134 92.5 217t242.5 83q145 0 235.5 -74.5t90.5 -194.5q0 -79 -46.5 -152.5t-169.5 -182.5l-160 -147v-17h390v-169 h-663v144l292 279q96 91 128.5 137t32.5 92q0 53 -38.5 87t-99.5 34q-63 0 -102.5 -37.5t-39.5 -98.5v-4h-185z" />
<glyph unicode="&#xbe;" horiz-adv-x="2230" d="M88 796h188q5 -56 49.5 -90t116.5 -34q71 0 115 35t44 90q0 58 -43 91t-119 33h-113v146h111q63 0 102 33t39 86q0 52 -39 83.5t-103 31.5t-104 -33.5t-45 -90.5h-184q4 131 95.5 209t242.5 78q143 0 235 -69.5t92 -178.5q0 -78 -46.5 -134.5t-123.5 -70.5v-17 q94 -8 149.5 -66.5t55.5 -148.5q0 -121 -101.5 -198.5t-259.5 -77.5q-157 0 -253.5 80t-100.5 213zM707 0l356 754l303 689h205l-347 -730l-312 -713h-205zM1380 154v173q48 93 125.5 216t245.5 371h280v-595h117v-161h-120v-158h-185v154h-463zM1559 314h285v441h-8 q-210 -314 -277 -435v-6z" />
<glyph unicode="&#xbf;" horiz-adv-x="1083" d="M107 30q0 214 211 340q96 58 130.5 106t34.5 125v59h207l1 -75q4 -107 -41.5 -180t-150.5 -136q-91 -56 -127.5 -106.5t-36.5 -123.5q0 -85 62 -138.5t164 -53.5q103 0 165.5 56.5t69.5 154.5h208q-7 -180 -125 -292t-328 -112q-198 0 -321 105.5t-123 270.5zM421 980 q0 68 43 110.5t112 42.5t111 -42.5t42 -110.5q0 -69 -42 -111t-111 -42t-112 42t-43 111z" />
<glyph unicode="&#xc0;" horiz-adv-x="1423" d="M70 0l521 1443h241l521 -1443h-238l-132 383h-550l-133 -383h-230zM273 1888h258l298 -306h-230zM490 571h436l-209 610h-17z" />
<glyph unicode="&#xc1;" horiz-adv-x="1423" d="M70 0l521 1443h241l521 -1443h-238l-132 383h-550l-133 -383h-230zM490 571h436l-209 610h-17zM594 1582l297 306h258l-325 -306h-230z" />
<glyph unicode="&#xc2;" horiz-adv-x="1423" d="M70 0l521 1443h241l521 -1443h-238l-132 383h-550l-133 -383h-230zM316 1582l295 314h202l295 -314h-225l-163 181h-16l-163 -181h-225zM490 571h436l-209 610h-17z" />
<glyph unicode="&#xc3;" horiz-adv-x="1423" d="M70 0l521 1443h241l521 -1443h-238l-132 383h-550l-133 -383h-230zM324 1578q0 140 65 222t177 82q44 0 81.5 -15.5t63.5 -38t48 -44.5t45 -37.5t44 -15.5q49 0 71.5 35t22.5 113h158q0 -140 -65 -221t-177 -81q-44 0 -81.5 15.5t-63.5 37.5t-48 44.5t-45 38t-44 15.5 q-49 0 -71.5 -36t-22.5 -114h-158zM490 571h436l-209 610h-17z" />
<glyph unicode="&#xc4;" horiz-adv-x="1423" d="M70 0l521 1443h241l521 -1443h-238l-132 383h-550l-133 -383h-230zM365 1711q0 57 38.5 96t95.5 39q56 0 94.5 -39t38.5 -96t-38.5 -95.5t-94.5 -38.5q-57 0 -95.5 38.5t-38.5 95.5zM490 571h436l-209 610h-17zM792 1711q0 57 39 96t95 39t94.5 -39t38.5 -96t-38.5 -95.5 t-94.5 -38.5t-95 38.5t-39 95.5z" />
<glyph unicode="&#xc5;" horiz-adv-x="1423" d="M70 0l521 1443h241l521 -1443h-238l-132 383h-550l-133 -383h-230zM490 571h436l-209 610h-17zM511 1747q0 84 58 141t143 57t143 -57t58 -141t-58 -141t-143 -57q-84 0 -142.5 57t-58.5 141zM611 1747q0 -43 28.5 -71.5t72.5 -28.5t72.5 28.5t28.5 71.5q0 44 -28.5 72 t-72.5 28t-72.5 -28t-28.5 -72z" />
<glyph unicode="&#xc6;" horiz-adv-x="1999" d="M70 0l631 1443h1156v-204h-655v-415h618v-195h-618v-425h655v-204h-870v417h-504l-189 -417h-224zM559 606h428v647h-140z" />
<glyph unicode="&#xc7;" horiz-adv-x="1485" d="M122 721q0 351 174.5 554t475.5 203q238 0 405.5 -139.5t194.5 -360.5h-223q-32 133 -133.5 212t-243.5 79q-194 0 -307.5 -147.5t-113.5 -400.5q0 -252 113.5 -399.5t308.5 -147.5q143 0 244.5 72t131.5 194h223q-28 -198 -172 -325.5t-359 -146.5l-35 -90 q99 -2 153.5 -46t54.5 -123q0 -89 -67 -142t-185 -53q-85 0 -147 17v120q46 -14 120 -14q116 0 116 67q0 32 -33 46.5t-109 14.5h-59v97l45 107q-267 26 -420 226t-153 526z" />
<glyph unicode="&#xc8;" horiz-adv-x="1239" d="M181 0v1443h916v-204h-692v-408h655v-194h-655v-433h692v-204h-916zM200 1888h258l298 -306h-230z" />
<glyph unicode="&#xc9;" horiz-adv-x="1239" d="M181 0v1443h916v-204h-692v-408h655v-194h-655v-433h692v-204h-916zM521 1582l297 306h258l-325 -306h-230z" />
<glyph unicode="&#xca;" horiz-adv-x="1239" d="M181 0v1443h916v-204h-692v-408h655v-194h-655v-433h692v-204h-916zM243 1582l295 314h202l295 -314h-225l-163 181h-16l-163 -181h-225z" />
<glyph unicode="&#xcb;" horiz-adv-x="1239" d="M181 0v1443h916v-204h-692v-408h655v-194h-655v-433h692v-204h-916zM292 1711q0 57 38.5 96t95.5 39q56 0 94.5 -39t38.5 -96t-38.5 -95.5t-94.5 -38.5q-57 0 -95.5 38.5t-38.5 95.5zM719 1711q0 57 39 96t95 39t94.5 -39t38.5 -96t-38.5 -95.5t-94.5 -38.5t-95 38.5 t-39 95.5z" />
<glyph unicode="&#xcc;" horiz-adv-x="585" d="M-146 1888h258l298 -306h-230zM181 0v1443h224v-1443h-224z" />
<glyph unicode="&#xcd;" horiz-adv-x="585" d="M175 1582l297 306h258l-325 -306h-230zM181 0v1443h224v-1443h-224z" />
<glyph unicode="&#xce;" horiz-adv-x="585" d="M-103 1582l295 314h202l295 -314h-225l-163 181h-16l-163 -181h-225zM181 0v1443h224v-1443h-224z" />
<glyph unicode="&#xcf;" horiz-adv-x="585" d="M-54 1711q0 57 38.5 96t95.5 39q56 0 94.5 -39t38.5 -96t-38.5 -95.5t-94.5 -38.5q-57 0 -95.5 38.5t-38.5 95.5zM181 0v1443h224v-1443h-224zM373 1711q0 57 39 96t95 39t94.5 -39t38.5 -96t-38.5 -95.5t-94.5 -38.5t-95 38.5t-39 95.5z" />
<glyph unicode="&#xd0;" horiz-adv-x="1502" d="M35 643v191h146v609h521q321 0 500 -188.5t179 -528.5q0 -346 -178 -536t-501 -190h-521v643h-146zM405 204h272q227 0 351.5 135.5t124.5 383.5q0 244 -125.5 380t-350.5 136h-272v-405h240v-191h-240v-439z" />
<glyph unicode="&#xd1;" horiz-adv-x="1539" d="M181 0v1443h202l741 -1025h16v1025h218v-1443h-202l-741 1025h-16v-1025h-218zM380 1578q0 140 65 222t177 82q44 0 81.5 -15.5t63.5 -38t48 -44.5t45 -37.5t44 -15.5q49 0 71.5 35t22.5 113h158q0 -140 -65 -221t-177 -81q-44 0 -81.5 15.5t-63.5 37.5t-48 44.5t-45 38 t-44 15.5q-49 0 -71.5 -36t-22.5 -114h-158z" />
<glyph unicode="&#xd2;" horiz-adv-x="1590" d="M122 722q0 349 181.5 552.5t492.5 203.5q312 0 492 -203.5t180 -552.5t-180 -553t-492 -204q-313 0 -493.5 203.5t-180.5 553.5zM351 722q0 -251 119 -399.5t326 -148.5q205 0 324 148.5t119 399.5q0 252 -119 399.5t-324 147.5q-204 0 -324.5 -148t-120.5 -399z M357 1888h258l298 -306h-230z" />
<glyph unicode="&#xd3;" horiz-adv-x="1590" d="M122 722q0 349 181.5 552.5t492.5 203.5q312 0 492 -203.5t180 -552.5t-180 -553t-492 -204q-313 0 -493.5 203.5t-180.5 553.5zM351 722q0 -251 119 -399.5t326 -148.5q205 0 324 148.5t119 399.5q0 252 -119 399.5t-324 147.5q-204 0 -324.5 -148t-120.5 -399z M678 1582l297 306h258l-325 -306h-230z" />
<glyph unicode="&#xd4;" horiz-adv-x="1590" d="M122 722q0 349 181.5 552.5t492.5 203.5q312 0 492 -203.5t180 -552.5t-180 -553t-492 -204q-313 0 -493.5 203.5t-180.5 553.5zM351 722q0 -251 119 -399.5t326 -148.5q205 0 324 148.5t119 399.5q0 252 -119 399.5t-324 147.5q-204 0 -324.5 -148t-120.5 -399z M400 1582l295 314h202l295 -314h-225l-163 181h-16l-163 -181h-225z" />
<glyph unicode="&#xd5;" horiz-adv-x="1590" d="M122 722q0 349 181.5 552.5t492.5 203.5q312 0 492 -203.5t180 -552.5t-180 -553t-492 -204q-313 0 -493.5 203.5t-180.5 553.5zM351 722q0 -251 119 -399.5t326 -148.5q205 0 324 148.5t119 399.5q0 252 -119 399.5t-324 147.5q-204 0 -324.5 -148t-120.5 -399z M408 1578q0 140 65 222t177 82q44 0 81.5 -15.5t63.5 -38t48 -44.5t45 -37.5t44 -15.5q49 0 71.5 35t22.5 113h158q0 -140 -65 -221t-177 -81q-44 0 -81.5 15.5t-63.5 37.5t-48 44.5t-45 38t-44 15.5q-49 0 -71.5 -36t-22.5 -114h-158z" />
<glyph unicode="&#xd6;" horiz-adv-x="1590" d="M122 722q0 349 181.5 552.5t492.5 203.5q312 0 492 -203.5t180 -552.5t-180 -553t-492 -204q-313 0 -493.5 203.5t-180.5 553.5zM351 722q0 -251 119 -399.5t326 -148.5q205 0 324 148.5t119 399.5q0 252 -119 399.5t-324 147.5q-204 0 -324.5 -148t-120.5 -399z M449 1711q0 57 38.5 96t95.5 39q56 0 94.5 -39t38.5 -96t-38.5 -95.5t-94.5 -38.5q-57 0 -95.5 38.5t-38.5 95.5zM876 1711q0 57 39 96t95 39t94.5 -39t38.5 -96t-38.5 -95.5t-94.5 -38.5t-95 38.5t-39 95.5z" />
<glyph unicode="&#xd7;" d="M243 276l306 306l-306 306l130 138l307 -305l306 305l130 -138l-306 -306l306 -306l-130 -138l-306 305l-307 -305z" />
<glyph unicode="&#xd8;" horiz-adv-x="1566" d="M122 722q0 349 181.5 552.5t492.5 203.5q223 0 382 -107l91 125l101 -64l-100 -138q198 -204 198 -572q0 -349 -180 -553t-492 -204q-236 0 -404 121l-103 -142l-101 71l113 155q-179 202 -179 552zM351 722q0 -217 91 -360l605 830q-105 77 -251 77q-204 0 -324.5 -148 t-120.5 -399zM524 267q110 -93 272 -93q205 0 324 148.5t119 399.5q0 236 -106 383z" />
<glyph unicode="&#xd9;" horiz-adv-x="1539" d="M185 497v946h224v-926q0 -154 95.5 -248t264.5 -94q170 0 265.5 94t95.5 248v926h224v-946q0 -238 -158.5 -385t-426.5 -147t-426 147t-158 385zM330 1888h258l298 -306h-230z" />
<glyph unicode="&#xda;" horiz-adv-x="1539" d="M185 497v946h224v-926q0 -154 95.5 -248t264.5 -94q170 0 265.5 94t95.5 248v926h224v-946q0 -238 -158.5 -385t-426.5 -147t-426 147t-158 385zM651 1582l297 306h258l-325 -306h-230z" />
<glyph unicode="&#xdb;" horiz-adv-x="1539" d="M185 497v946h224v-926q0 -154 95.5 -248t264.5 -94q170 0 265.5 94t95.5 248v926h224v-946q0 -238 -158.5 -385t-426.5 -147t-426 147t-158 385zM373 1582l295 314h202l295 -314h-225l-163 181h-16l-163 -181h-225z" />
<glyph unicode="&#xdc;" horiz-adv-x="1539" d="M185 497v946h224v-926q0 -154 95.5 -248t264.5 -94q170 0 265.5 94t95.5 248v926h224v-946q0 -238 -158.5 -385t-426.5 -147t-426 147t-158 385zM422 1711q0 57 38.5 96t95.5 39q56 0 94.5 -39t38.5 -96t-38.5 -95.5t-94.5 -38.5q-57 0 -95.5 38.5t-38.5 95.5zM849 1711 q0 57 39 96t95 39t94.5 -39t38.5 -96t-38.5 -95.5t-94.5 -38.5t-95 38.5t-39 95.5z" />
<glyph unicode="&#xdd;" horiz-adv-x="1383" d="M71 1443h249l363 -625h17l363 625h249l-509 -861v-582h-224v582zM573 1582l297 306h258l-325 -306h-230z" />
<glyph unicode="&#xde;" horiz-adv-x="1315" d="M181 0v1443h224v-251h350q186 0 313.5 -118.5t127.5 -317.5q0 -132 -62 -233t-163 -152t-223 -51h-343v-320h-224zM405 517h287q125 0 200 61.5t75 177.5t-75 176.5t-200 60.5h-287v-476z" />
<glyph unicode="&#xdf;" horiz-adv-x="1320" d="M213 0v1091q0 184 122.5 291.5t325.5 107.5q196 0 320 -105t124 -271q0 -120 -63.5 -210t-161.5 -119v-19q154 -13 244.5 -108t90.5 -254q0 -184 -128 -301t-337 -117q-99 0 -158 14v191q60 -15 131 -15q131 0 203.5 65t72.5 173q0 110 -83.5 173.5t-232.5 63.5h-65v202 h50q104 0 165.5 61t61.5 172q0 92 -62 151.5t-168 59.5q-113 0 -175.5 -63t-62.5 -179v-1055h-214z" />
<glyph unicode="&#xe0;" horiz-adv-x="1158" d="M94 308q0 146 105 229.5t300 95.5l295 17v94q0 87 -57 133.5t-166 46.5q-90 0 -149.5 -31.5t-77.5 -89.5h-208q16 140 137.5 223.5t307.5 83.5q204 0 315.5 -96.5t111.5 -269.5v-744h-207v153h-17q-49 -82 -134.5 -126.5t-192.5 -44.5q-160 0 -261.5 89.5t-101.5 236.5z M213 1615h252l251 -344h-221zM310 318q0 -72 56 -113.5t146 -41.5q121 0 201.5 68t80.5 170v91l-266 -17q-112 -7 -165 -46t-53 -111z" />
<glyph unicode="&#xe1;" horiz-adv-x="1158" d="M94 308q0 146 105 229.5t300 95.5l295 17v94q0 87 -57 133.5t-166 46.5q-90 0 -149.5 -31.5t-77.5 -89.5h-208q16 140 137.5 223.5t307.5 83.5q204 0 315.5 -96.5t111.5 -269.5v-744h-207v153h-17q-49 -82 -134.5 -126.5t-192.5 -44.5q-160 0 -261.5 89.5t-101.5 236.5z M310 318q0 -72 56 -113.5t146 -41.5q121 0 201.5 68t80.5 170v91l-266 -17q-112 -7 -165 -46t-53 -111zM452 1271l251 344h252l-281 -344h-222z" />
<glyph unicode="&#xe2;" horiz-adv-x="1158" d="M94 308q0 146 105 229.5t300 95.5l295 17v94q0 87 -57 133.5t-166 46.5q-90 0 -149.5 -31.5t-77.5 -89.5h-208q16 140 137.5 223.5t307.5 83.5q204 0 315.5 -96.5t111.5 -269.5v-744h-207v153h-17q-49 -82 -134.5 -126.5t-192.5 -44.5q-160 0 -261.5 89.5t-101.5 236.5z M184 1238l280 346h234l279 -346h-221l-167 219h-16l-167 -219h-222zM310 318q0 -72 56 -113.5t146 -41.5q121 0 201.5 68t80.5 170v91l-266 -17q-112 -7 -165 -46t-53 -111z" />
<glyph unicode="&#xe3;" horiz-adv-x="1158" d="M94 308q0 146 105 229.5t300 95.5l295 17v94q0 87 -57 133.5t-166 46.5q-90 0 -149.5 -31.5t-77.5 -89.5h-208q16 140 137.5 223.5t307.5 83.5q204 0 315.5 -96.5t111.5 -269.5v-744h-207v153h-17q-49 -82 -134.5 -126.5t-192.5 -44.5q-160 0 -261.5 89.5t-101.5 236.5z M195 1242q0 140 65 222t177 82q44 0 81.5 -15.5t63.5 -38t48 -44.5t45 -37.5t44 -15.5q49 0 71.5 35t22.5 113h158q0 -140 -65 -221t-177 -81q-44 0 -81.5 15.5t-63.5 37.5t-48 44.5t-45 38t-44 15.5q-49 0 -71.5 -36t-22.5 -114h-158zM310 318q0 -72 56 -113.5t146 -41.5 q121 0 201.5 68t80.5 170v91l-266 -17q-112 -7 -165 -46t-53 -111z" />
<glyph unicode="&#xe4;" horiz-adv-x="1158" d="M94 308q0 146 105 229.5t300 95.5l295 17v94q0 87 -57 133.5t-166 46.5q-90 0 -149.5 -31.5t-77.5 -89.5h-208q16 140 137.5 223.5t307.5 83.5q204 0 315.5 -96.5t111.5 -269.5v-744h-207v153h-17q-49 -82 -134.5 -126.5t-192.5 -44.5q-160 0 -261.5 89.5t-101.5 236.5z M234 1372q0 57 38.5 96t95.5 39q56 0 94.5 -39t38.5 -96t-38.5 -95.5t-94.5 -38.5q-57 0 -95.5 38.5t-38.5 95.5zM310 318q0 -72 56 -113.5t146 -41.5q121 0 201.5 68t80.5 170v91l-266 -17q-112 -7 -165 -46t-53 -111zM661 1372q0 57 39 96t95 39t94.5 -39t38.5 -96 t-38.5 -95.5t-94.5 -38.5t-95 38.5t-39 95.5z" />
<glyph unicode="&#xe5;" horiz-adv-x="1158" d="M94 308q0 146 105 229.5t300 95.5l295 17v94q0 87 -57 133.5t-166 46.5q-90 0 -149.5 -31.5t-77.5 -89.5h-208q16 140 137.5 223.5t307.5 83.5q204 0 315.5 -96.5t111.5 -269.5v-744h-207v153h-17q-49 -82 -134.5 -126.5t-192.5 -44.5q-160 0 -261.5 89.5t-101.5 236.5z M310 318q0 -72 56 -113.5t146 -41.5q121 0 201.5 68t80.5 170v91l-266 -17q-112 -7 -165 -46t-53 -111zM344 1472q0 99 68.5 166t168.5 67t168.5 -67t68.5 -166t-69 -166.5t-168 -67.5t-168 67.5t-69 166.5zM465 1472q0 -50 33 -82.5t83 -32.5t83 32.5t33 82.5 q0 49 -33 81.5t-83 32.5t-83 -32.5t-33 -81.5z" />
<glyph unicode="&#xe6;" horiz-adv-x="1865" d="M94 308q0 146 105 229.5t300 95.5l295 17v87q0 91 -57.5 139t-165.5 48q-91 0 -150 -31.5t-77 -89.5h-208q16 137 136 222t298 85q126 0 215.5 -47t135.5 -126h17q52 77 147.5 125t208.5 48q219 0 344 -143.5t125 -394.5v-79h-760v-21q5 -141 85.5 -225t210.5 -84 q180 0 245 131h207q-38 -149 -157.5 -232t-296.5 -83q-129 0 -235.5 59.5t-152.5 156.5h-17q-56 -101 -161.5 -158.5t-244.5 -57.5q-177 0 -284.5 90t-107.5 239zM310 317q0 -73 57.5 -114.5t152.5 -41.5q119 0 196.5 71t77.5 172v88l-266 -17q-112 -7 -165 -46t-53 -112z M1003 652h542q-4 122 -77 199t-186 77q-120 0 -195.5 -75t-83.5 -201z" />
<glyph unicode="&#xe7;" horiz-adv-x="1167" d="M102 548q0 262 136 412t374 150q199 0 321.5 -104t144.5 -273h-209q-20 83 -86.5 134t-170.5 51q-135 0 -212.5 -98t-77.5 -272q0 -176 77.5 -276.5t212.5 -100.5q103 0 169.5 46t87.5 133h209q-19 -151 -121.5 -249.5t-268.5 -117.5l-41 -105q99 -2 153.5 -46t54.5 -123 q0 -89 -67 -142t-185 -53q-85 0 -147 17v120q46 -14 120 -14q116 0 116 67q0 32 -33 46.5t-109 14.5h-59v97l51 121q-207 23 -323.5 171.5t-116.5 393.5z" />
<glyph unicode="&#xe8;" horiz-adv-x="1192" d="M102 541q0 261 136 415t366 154q227 0 356.5 -146t129.5 -403v-75h-769v-12q5 -144 83 -228t207 -84q197 0 259 132h207q-37 -147 -161.5 -231t-310.5 -84q-234 0 -368.5 150.5t-134.5 411.5zM236 1615h252l251 -344h-221zM321 645h550q-4 129 -76.5 205.5t-191.5 76.5 t-196 -77t-86 -205z" />
<glyph unicode="&#xe9;" horiz-adv-x="1192" d="M102 541q0 261 136 415t366 154q227 0 356.5 -146t129.5 -403v-75h-769v-12q5 -144 83 -228t207 -84q197 0 259 132h207q-37 -147 -161.5 -231t-310.5 -84q-234 0 -368.5 150.5t-134.5 411.5zM321 645h550q-4 129 -76.5 205.5t-191.5 76.5t-196 -77t-86 -205zM475 1271 l251 344h252l-281 -344h-222z" />
<glyph unicode="&#xea;" horiz-adv-x="1192" d="M102 541q0 261 136 415t366 154q227 0 356.5 -146t129.5 -403v-75h-769v-12q5 -144 83 -228t207 -84q197 0 259 132h207q-37 -147 -161.5 -231t-310.5 -84q-234 0 -368.5 150.5t-134.5 411.5zM207 1238l280 346h234l279 -346h-221l-167 219h-16l-167 -219h-222zM321 645 h550q-4 129 -76.5 205.5t-191.5 76.5t-196 -77t-86 -205z" />
<glyph unicode="&#xeb;" horiz-adv-x="1192" d="M102 541q0 261 136 415t366 154q227 0 356.5 -146t129.5 -403v-75h-769v-12q5 -144 83 -228t207 -84q197 0 259 132h207q-37 -147 -161.5 -231t-310.5 -84q-234 0 -368.5 150.5t-134.5 411.5zM257 1372q0 57 38.5 96t95.5 39q56 0 94.5 -39t38.5 -96t-38.5 -95.5 t-94.5 -38.5q-57 0 -95.5 38.5t-38.5 95.5zM321 645h550q-4 129 -76.5 205.5t-191.5 76.5t-196 -77t-86 -205zM684 1372q0 57 39 96t95 39t94.5 -39t38.5 -96t-38.5 -95.5t-94.5 -38.5t-95 38.5t-39 95.5z" />
<glyph unicode="&#xec;" horiz-adv-x="534" d="M-101 1615h252l251 -344h-221zM160 0v1089h214v-1089h-214z" />
<glyph unicode="&#xed;" horiz-adv-x="534" d="M138 1271l251 344h252l-281 -344h-222zM160 0v1089h214v-1089h-214z" />
<glyph unicode="&#xee;" horiz-adv-x="534" d="M-130 1238l280 346h234l279 -346h-221l-167 219h-16l-167 -219h-222zM160 0v1089h214v-1089h-214z" />
<glyph unicode="&#xef;" horiz-adv-x="534" d="M-80 1372q0 57 38.5 96t95.5 39q56 0 94.5 -39t38.5 -96t-38.5 -95.5t-94.5 -38.5q-57 0 -95.5 38.5t-38.5 95.5zM160 0v1089h214v-1089h-214zM347 1372q0 57 39 96t95 39t94.5 -39t38.5 -96t-38.5 -95.5t-94.5 -38.5t-95 38.5t-39 95.5z" />
<glyph unicode="&#xf0;" horiz-adv-x="1220" d="M104 526q0 237 125.5 383t329.5 146q97 0 182.5 -42t122.5 -108h16q-44 165 -178 321l-281 -92l-42 125l230 76q-64 67 -215 187h263q70 -56 135 -124l255 85l43 -126l-207 -68q115 -148 175.5 -328.5t60.5 -375.5q0 -277 -136.5 -440t-368.5 -163q-235 0 -372.5 147 t-137.5 397zM325 526q0 -160 79 -255.5t213 -95.5t213.5 95t79.5 255t-80 255.5t-213 95.5t-212.5 -95t-79.5 -255z" />
<glyph unicode="&#xf1;" horiz-adv-x="1227" d="M156 0v1089h207v-173h16q85 194 325 194q182 0 279.5 -105t97.5 -300v-705h-215v651q0 262 -235 262q-119 0 -189.5 -74.5t-70.5 -201.5v-637h-215zM236 1242q0 140 65 222t177 82q44 0 81.5 -15.5t63.5 -38t48 -44.5t45 -37.5t44 -15.5q49 0 71.5 35t22.5 113h158 q0 -140 -65 -221t-177 -81q-44 0 -81.5 15.5t-63.5 37.5t-48 44.5t-45 38t-44 15.5q-49 0 -71.5 -36t-22.5 -114h-158z" />
<glyph unicode="&#xf2;" horiz-adv-x="1231" d="M102 545q0 263 137.5 414t376.5 151q238 0 375.5 -151t137.5 -414q0 -264 -137 -415t-376 -151q-240 0 -377 151t-137 415zM248 1615h252l251 -344h-221zM324 545q0 -179 76 -277t216 -98q139 0 215.5 98.5t76.5 276.5q0 177 -76.5 275.5t-215.5 98.5q-140 0 -216 -98 t-76 -276z" />
<glyph unicode="&#xf3;" horiz-adv-x="1231" d="M102 545q0 263 137.5 414t376.5 151q238 0 375.5 -151t137.5 -414q0 -264 -137 -415t-376 -151q-240 0 -377 151t-137 415zM324 545q0 -179 76 -277t216 -98q139 0 215.5 98.5t76.5 276.5q0 177 -76.5 275.5t-215.5 98.5q-140 0 -216 -98t-76 -276zM487 1271l251 344h252 l-281 -344h-222z" />
<glyph unicode="&#xf4;" horiz-adv-x="1231" d="M102 545q0 263 137.5 414t376.5 151q238 0 375.5 -151t137.5 -414q0 -264 -137 -415t-376 -151q-240 0 -377 151t-137 415zM219 1238l280 346h234l279 -346h-221l-167 219h-16l-167 -219h-222zM324 545q0 -179 76 -277t216 -98q139 0 215.5 98.5t76.5 276.5 q0 177 -76.5 275.5t-215.5 98.5q-140 0 -216 -98t-76 -276z" />
<glyph unicode="&#xf5;" horiz-adv-x="1231" d="M102 545q0 263 137.5 414t376.5 151q238 0 375.5 -151t137.5 -414q0 -264 -137 -415t-376 -151q-240 0 -377 151t-137 415zM230 1242q0 140 65 222t177 82q44 0 81.5 -15.5t63.5 -38t48 -44.5t45 -37.5t44 -15.5q49 0 71.5 35t22.5 113h158q0 -140 -65 -221t-177 -81 q-44 0 -81.5 15.5t-63.5 37.5t-48 44.5t-45 38t-44 15.5q-49 0 -71.5 -36t-22.5 -114h-158zM324 545q0 -179 76 -277t216 -98q139 0 215.5 98.5t76.5 276.5q0 177 -76.5 275.5t-215.5 98.5q-140 0 -216 -98t-76 -276z" />
<glyph unicode="&#xf6;" horiz-adv-x="1231" d="M102 545q0 263 137.5 414t376.5 151q238 0 375.5 -151t137.5 -414q0 -264 -137 -415t-376 -151q-240 0 -377 151t-137 415zM269 1372q0 57 38.5 96t95.5 39q56 0 94.5 -39t38.5 -96t-38.5 -95.5t-94.5 -38.5q-57 0 -95.5 38.5t-38.5 95.5zM324 545q0 -179 76 -277 t216 -98q139 0 215.5 98.5t76.5 276.5q0 177 -76.5 275.5t-215.5 98.5q-140 0 -216 -98t-76 -276zM696 1372q0 57 39 96t95 39t94.5 -39t38.5 -96t-38.5 -95.5t-94.5 -38.5t-95 38.5t-39 95.5z" />
<glyph unicode="&#xf7;" d="M160 491v182h1040v-182h-1040zM540 210q0 61 39.5 101t100.5 40t100.5 -39.5t39.5 -101.5q0 -63 -39 -102.5t-101 -39.5q-61 0 -100.5 39.5t-39.5 102.5zM540 954q0 62 39.5 101.5t100.5 39.5q62 0 101 -39.5t39 -101.5t-39 -101.5t-101 -39.5q-61 0 -100.5 39.5 t-39.5 101.5z" />
<glyph unicode="&#xf8;" horiz-adv-x="1231" d="M102 545q0 263 137.5 414t376.5 151q147 0 257 -59l60 91l102 -62l-65 -99q159 -153 159 -436q0 -264 -137 -415t-376 -151q-147 0 -261 60l-60 -92l-104 67l65 99q-154 151 -154 432zM324 545q0 -152 55 -245l383 582q-63 37 -146 37q-140 0 -216 -98t-76 -276zM466 209 q63 -39 150 -39q139 0 215.5 98.5t76.5 276.5q0 156 -59 250z" />
<glyph unicode="&#xf9;" horiz-adv-x="1230" d="M146 382v707h215v-651q0 -133 55.5 -196.5t173.5 -63.5q129 0 199 72.5t70 201.5v637h215v-1089h-207v173h-17q-83 -194 -329 -194q-180 0 -277.5 105t-97.5 298zM242 1615h252l251 -344h-221z" />
<glyph unicode="&#xfa;" horiz-adv-x="1230" d="M146 382v707h215v-651q0 -133 55.5 -196.5t173.5 -63.5q129 0 199 72.5t70 201.5v637h215v-1089h-207v173h-17q-83 -194 -329 -194q-180 0 -277.5 105t-97.5 298zM481 1271l251 344h252l-281 -344h-222z" />
<glyph unicode="&#xfb;" horiz-adv-x="1230" d="M146 382v707h215v-651q0 -133 55.5 -196.5t173.5 -63.5q129 0 199 72.5t70 201.5v637h215v-1089h-207v173h-17q-83 -194 -329 -194q-180 0 -277.5 105t-97.5 298zM213 1238l280 346h234l279 -346h-221l-167 219h-16l-167 -219h-222z" />
<glyph unicode="&#xfc;" horiz-adv-x="1230" d="M146 382v707h215v-651q0 -133 55.5 -196.5t173.5 -63.5q129 0 199 72.5t70 201.5v637h215v-1089h-207v173h-17q-83 -194 -329 -194q-180 0 -277.5 105t-97.5 298zM263 1372q0 57 38.5 96t95.5 39q56 0 94.5 -39t38.5 -96t-38.5 -95.5t-94.5 -38.5q-57 0 -95.5 38.5 t-38.5 95.5zM690 1372q0 57 39 96t95 39t94.5 -39t38.5 -96t-38.5 -95.5t-94.5 -38.5t-95 38.5t-39 95.5z" />
<glyph unicode="&#xfd;" horiz-adv-x="1152" d="M64 1089h234l273 -865h17l272 865h228l-406 -1134q-70 -198 -160.5 -274t-257.5 -76q-56 0 -89 5v185q23 -4 70 -4q77 0 123 35t74 117l16 53zM445 1271l251 344h252l-281 -344h-222z" />
<glyph unicode="&#xfe;" horiz-adv-x="1287" d="M164 -353v1859h209v-597h16q50 93 140 145.5t201 52.5q208 0 330 -151.5t122 -410.5t-122 -411t-329 -152q-116 0 -204 48.5t-131 134.5h-17v-518h-215zM375 544q0 -170 79 -269.5t214 -99.5q137 0 214.5 98.5t77.5 271.5t-77.5 271t-213.5 98t-215 -99.5t-79 -270.5z " />
<glyph unicode="&#xff;" horiz-adv-x="1152" d="M64 1089h234l273 -865h17l272 865h228l-406 -1134q-70 -198 -160.5 -274t-257.5 -76q-56 0 -89 5v185q23 -4 70 -4q77 0 123 35t74 117l16 53zM227 1372q0 57 38.5 96t95.5 39q56 0 94.5 -39t38.5 -96t-38.5 -95.5t-94.5 -38.5q-57 0 -95.5 38.5t-38.5 95.5zM654 1372 q0 57 39 96t95 39t94.5 -39t38.5 -96t-38.5 -95.5t-94.5 -38.5t-95 38.5t-39 95.5z" />
<glyph unicode="&#x152;" horiz-adv-x="2306" d="M125 722q0 351 175 553.5t477 202.5q152 0 287 -74.5t196 -192.5h16v232h902v-204h-707v-408h670v-194h-670v-433h707v-204h-902v241h-16q-62 -124 -195 -200t-288 -76q-303 0 -477.5 202.5t-174.5 554.5zM355 722q0 -254 121.5 -401t331.5 -147q202 0 319 147t117 401 t-117 400.5t-319 146.5q-209 0 -331 -147t-122 -400z" />
<glyph unicode="&#x153;" horiz-adv-x="1998" d="M104 544q0 263 136 414.5t373 151.5q133 0 237 -56t160 -158h17q55 101 157.5 157.5t231.5 56.5q221 0 350.5 -147.5t129.5 -400.5v-76h-768v-11q5 -144 83 -228t206 -84q198 0 259 131h207q-37 -147 -161.5 -231t-304.5 -84q-133 0 -239 57t-152 153h-17 q-47 -96 -154 -153t-242 -57q-236 0 -372.5 151.5t-136.5 413.5zM325 544q0 -178 76.5 -276t215.5 -98t215.5 98t76.5 276q0 179 -76.5 277t-215.5 98t-215.5 -98.5t-76.5 -276.5zM1128 646h549q-3 128 -76 205t-191 77q-119 0 -196 -77t-86 -205z" />
<glyph unicode="&#x178;" horiz-adv-x="1383" d="M71 1443h249l363 -625h17l363 625h249l-509 -861v-582h-224v582zM344 1711q0 57 38.5 96t95.5 39q56 0 94.5 -39t38.5 -96t-38.5 -95.5t-94.5 -38.5q-57 0 -95.5 38.5t-38.5 95.5zM771 1711q0 57 39 96t95 39t94.5 -39t38.5 -96t-38.5 -95.5t-94.5 -38.5t-95 38.5 t-39 95.5z" />
<glyph unicode="&#x2c6;" horiz-adv-x="1096" d="M151 1238l280 346h234l279 -346h-221l-167 219h-16l-167 -219h-222z" />
<glyph unicode="&#x2dc;" horiz-adv-x="1095" d="M159 1266q0 140 65 222t177 82q44 0 81.5 -15.5t63.5 -38t48 -44.5t45 -37.5t44 -15.5q49 0 71.5 35t22.5 113h158q0 -140 -65 -221t-177 -81q-44 0 -81.5 15.5t-63.5 37.5t-48 44.5t-45 38t-44 15.5q-49 0 -71.5 -36t-22.5 -114h-158z" />
<glyph unicode="&#x2000;" horiz-adv-x="972" />
<glyph unicode="&#x2001;" horiz-adv-x="1945" />
<glyph unicode="&#x2002;" horiz-adv-x="972" />
<glyph unicode="&#x2003;" horiz-adv-x="1945" />
<glyph unicode="&#x2004;" horiz-adv-x="648" />
<glyph unicode="&#x2005;" horiz-adv-x="486" />
<glyph unicode="&#x2006;" horiz-adv-x="324" />
<glyph unicode="&#x2007;" horiz-adv-x="324" />
<glyph unicode="&#x2008;" horiz-adv-x="243" />
<glyph unicode="&#x2009;" horiz-adv-x="389" />
<glyph unicode="&#x200a;" horiz-adv-x="108" />
<glyph unicode="&#x2010;" horiz-adv-x="975" d="M160 476v211h656v-211h-656z" />
<glyph unicode="&#x2011;" horiz-adv-x="975" d="M160 476v211h656v-211h-656z" />
<glyph unicode="&#x2012;" horiz-adv-x="975" d="M160 476v211h656v-211h-656z" />
<glyph unicode="&#x2013;" horiz-adv-x="1024" d="M0 476v211h1024v-211h-1024z" />
<glyph unicode="&#x2014;" horiz-adv-x="2048" d="M0 476v211h2048v-211h-2048z" />
<glyph unicode="&#x2018;" horiz-adv-x="621" d="M136 873l186 570h152l-110 -570h-228z" />
<glyph unicode="&#x2019;" horiz-adv-x="621" d="M170 873l92 570h229l-168 -570h-153z" />
<glyph unicode="&#x201a;" horiz-adv-x="621" d="M163 -377l96 593h225l-164 -593h-157z" />
<glyph unicode="&#x201c;" horiz-adv-x="1055" d="M137 849l180 594h160l-115 -594h-225zM565 849l163 594h160l-98 -594h-225z" />
<glyph unicode="&#x201d;" horiz-adv-x="1055" d="M168 849l97 594h225l-163 -594h-159zM578 849l115 594h225l-180 -594h-160z" />
<glyph unicode="&#x201e;" horiz-adv-x="1055" d="M168 -377l95 593h225l-164 -593h-156zM578 -377l114 593h225l-183 -593h-156z" />
<glyph unicode="&#x2022;" horiz-adv-x="1032" d="M193 565q0 137 94 233t229 96t229 -96t94 -233q0 -138 -94 -233.5t-229 -95.5t-229 95.5t-94 233.5z" />
<glyph unicode="&#x2026;" horiz-adv-x="1715" d="M176 132q0 63 42 106t105 43t105 -43t42 -106t-42 -106t-105 -43t-105 43t-42 106zM711 132q0 63 42 106t105 43t105 -43t42 -106t-42 -106t-105 -43t-105 43t-42 106zM1237 132q0 63 42 106t105 43t105 -43t42 -106t-42 -106t-105 -43t-105 43t-42 106z" />
<glyph unicode="&#x202f;" horiz-adv-x="389" />
<glyph unicode="&#x2039;" horiz-adv-x="920" d="M171 561v8l350 414h228l-349 -410v-14l349 -411h-230z" />
<glyph unicode="&#x203a;" horiz-adv-x="920" d="M171 148l350 411v14l-350 410h229l349 -414v-8l-348 -413h-230z" />
<glyph unicode="&#x205f;" horiz-adv-x="486" />
<glyph unicode="&#x20ac;" d="M108 491v146h182q-3 41 -3 84t3 85h-182v147h206q63 248 254 381.5t456 133.5q131 0 202 -22v-204q-79 18 -200 18q-169 0 -293 -79t-180 -228h534v-147h-568q-4 -54 -4 -85q0 -48 4 -84h568v-146h-535q55 -149 179.5 -229t292.5 -80q141 0 203 17v-205q-70 -19 -203 -19 q-175 0 -319 58t-246.5 175t-144.5 283h-206z" />
<glyph unicode="&#x2122;" horiz-adv-x="2013" d="M45 1276v167h758v-167h-287v-733h-186v733h-285zM957 543v900h220l230 -589h11l230 589h220v-900h-173v592h-9l-212 -536h-122l-212 536h-10v-592h-173z" />
<glyph unicode="&#x25fc;" horiz-adv-x="1090" d="M0 0v1090h1090v-1090h-1090z" />
<glyph unicode="&#xfb01;" horiz-adv-x="1309" d="M54 903v181h179v117q0 323 336 323q70 0 128 -11v-169q-30 6 -83 6q-89 0 -129 -40t-40 -122v-104h243v-181h-240v-903h-215v903h-179zM903 1411q0 56 39.5 94t99.5 38t99.5 -38t39.5 -94t-39.5 -93.5t-99.5 -37.5t-99.5 37.5t-39.5 93.5zM935 0v1089h214v-1089h-214z " />
<glyph unicode="&#xfb02;" horiz-adv-x="1322" d="M54 903v181h179v117q0 323 336 323q70 0 128 -11v-169q-30 6 -83 6q-89 0 -129 -40t-40 -122v-104h243v-181h-240v-903h-215v903h-179zM941 0v1514h215v-1514h-215z" />
</font>
</defs>
</svg>
