<?xml version="1.0" standalone="no"?>
<!DOCTYPE svg PUBLIC "-//W3C//DTD SVG 1.1//EN" "http://www.w3.org/Graphics/SVG/1.1/DTD/svg11.dtd" >
<svg xmlns="http://www.w3.org/2000/svg" xmlns:xlink="http://www.w3.org/1999/xlink" version="1.1">
<metadata></metadata>
<defs>
<font id="sf_pro_textlight" horiz-adv-x="1321" >
<font-face units-per-em="2048" ascent="1638" descent="-410" />
<missing-glyph horiz-adv-x="554" />
<glyph horiz-adv-x="0" />
<glyph unicode="&#xd;" horiz-adv-x="0" />
<glyph unicode=" "  horiz-adv-x="554" />
<glyph unicode="&#x09;" horiz-adv-x="554" />
<glyph unicode="&#xa0;" horiz-adv-x="554" />
<glyph unicode="!" horiz-adv-x="617" d="M196 98q0 49 31.5 81t80.5 32t80.5 -31.5t31.5 -81.5q0 -49 -31.5 -80.5t-80.5 -31.5t-80.5 31.5t-31.5 80.5zM233 1444h150l-11 -987h-127z" />
<glyph unicode="&#x22;" horiz-adv-x="802" d="M173 935v508h123v-508h-123zM506 935v508h123v-508h-123z" />
<glyph unicode="#" horiz-adv-x="1316" d="M51 419l22 111h250l79 395h-259l22 110h259l86 410h110l-83 -410h359l86 410h111l-85 -410h267l-21 -110h-269l-80 -395h277l-21 -111h-278l-86 -419h-112l86 419h-361l-86 -419h-110l85 419h-248zM433 528h362l79 398h-361z" />
<glyph unicode="$" d="M150 391h130q8 -114 98.5 -191t231.5 -90v579l-55 15q-189 48 -279.5 139t-90.5 232q0 161 116 266.5t309 119.5v138h104v-137q186 -14 305.5 -120t123.5 -262h-130q-4 104 -88 178t-211 85v-544l59 -15q210 -52 304 -144t94 -245q0 -172 -123.5 -280.5t-333.5 -122.5 v-142h-104v141q-203 13 -330.5 123.5t-129.5 276.5zM316 1082q0 -101 71 -163.5t223 -96.5v521q-127 -6 -210.5 -80t-83.5 -181zM714 108q148 7 236.5 82.5t88.5 194.5q0 112 -76 178t-249 105v-560z" />
<glyph unicode="%" horiz-adv-x="1610" d="M95 1125q0 149 83 244t215 95q131 0 214 -94.5t83 -244.5q0 -151 -83 -246t-214 -95t-214.5 95t-83.5 246zM204 0l551 746l514 697h141l-557 -756l-506 -687h-143zM217 1125q0 -108 48.5 -174t127.5 -66q78 0 126 66t48 174q0 109 -47 174t-127 65t-128 -65.5t-48 -173.5 zM920 320q0 149 83 244t215 95q131 0 214 -94.5t83 -244.5q0 -151 -83 -246t-214 -95t-214.5 95t-83.5 246zM1042 320q0 -109 48.5 -175t127.5 -66q78 0 126 66.5t48 174.5q0 109 -47 173.5t-127 64.5t-128 -65t-48 -173z" />
<glyph unicode="&#x26;" horiz-adv-x="1472" d="M122 377q0 243 281 392q5 3 38.5 20t38.5 20q-110 113 -153.5 191t-43.5 158q0 134 102.5 224t255.5 90t253.5 -89t100.5 -225q0 -109 -76.5 -198t-251.5 -179l400 -427q92 163 92 403v46h128v-46q0 -299 -130 -495l248 -262h-172l-158 168q-93 -91 -219.5 -142 t-259.5 -51q-209 0 -341.5 112.5t-132.5 289.5zM258 385q0 -128 97 -210.5t252 -82.5q107 0 212.5 45t172.5 118l-436 469q-3 -1 -19 -9.5t-33.5 -17.5t-21.5 -11q-111 -58 -167.5 -135t-56.5 -166zM414 1151q0 -64 38.5 -127t139.5 -165q147 73 210.5 142.5t63.5 151.5 q0 91 -63.5 150t-161.5 59q-96 0 -161.5 -60.5t-65.5 -150.5z" />
<glyph unicode="'" horiz-adv-x="469" d="M173 935v508h123v-508h-123z" />
<glyph unicode="(" horiz-adv-x="751" d="M244 601q0 540 280 905h114q-113 -147 -186.5 -403t-73.5 -502q0 -248 73 -503t187 -402h-114q-280 365 -280 905z" />
<glyph unicode=")" horiz-adv-x="751" d="M113 -304q114 147 187 402t73 503q0 246 -73.5 502t-186.5 403h114q280 -365 280 -905t-280 -905h-114z" />
<glyph unicode="*" horiz-adv-x="1037" d="M168 934l269 142l-269 142l52 92l257 -165l-12 305h106l-12 -305l258 165l51 -92l-268 -142l268 -141l-51 -91l-258 162l12 -302h-106l12 303l-257 -163z" />
<glyph unicode="+" d="M159 523v114h444v448h115v-448h443v-114h-443v-456h-115v456h-444z" />
<glyph unicode="," horiz-adv-x="593" d="M144 -349l97 532h148l-146 -532h-99z" />
<glyph unicode="-" horiz-adv-x="975" d="M159 520v124h656v-124h-656z" />
<glyph unicode="." horiz-adv-x="593" d="M191 97q0 44 31 75t75 31t74.5 -31t30.5 -75t-30.5 -74.5t-74.5 -30.5t-75 30.5t-31 74.5z" />
<glyph unicode="/" horiz-adv-x="676" d="M20 -304l518 1810h118l-518 -1810h-118z" />
<glyph unicode="0" horiz-adv-x="1282" d="M132 722q0 352 135.5 551.5t374.5 199.5q238 0 372.5 -200t134.5 -553q0 -354 -134 -552t-373 -198q-241 0 -375.5 198.5t-134.5 553.5zM270 722q0 -300 98 -466t274 -166t273 166t97 466q0 298 -97.5 464t-272.5 166t-273.5 -166.5t-98.5 -463.5z" />
<glyph unicode="1" horiz-adv-x="913" d="M114 1031v145q4 3 179 124.5t210 142.5h136v-1443h-136v1290h-13q-21 -11 -190 -129.5t-186 -129.5z" />
<glyph unicode="2" horiz-adv-x="1222" d="M152 1044v1q1 123 59.5 221t161.5 152.5t232 54.5q190 0 319 -115.5t129 -285.5q0 -112 -64 -221t-242 -299l-390 -416v-12h732v-124h-929v96l504 545q151 162 201.5 247.5t50.5 178.5q0 121 -90.5 203.5t-223.5 82.5q-139 0 -227 -85.5t-90 -222.5v-1h-133z" />
<glyph unicode="3" horiz-adv-x="1260" d="M137 369h132q9 -122 110.5 -200.5t249.5 -78.5q157 0 259.5 86t102.5 217q0 136 -100 214.5t-273 78.5h-175v118h169q140 0 227.5 77.5t87.5 201.5q0 118 -87 194t-221 76t-221.5 -73.5t-97.5 -196.5h-133q12 177 136.5 283.5t320.5 106.5q184 0 313 -109t129 -265 q0 -131 -71 -220.5t-197 -117.5v-13q155 -17 244.5 -113.5t89.5 -244.5q0 -178 -145 -299t-357 -121q-209 0 -347.5 112t-145.5 287z" />
<glyph unicode="4" horiz-adv-x="1312" d="M119 326v125q223 377 662 994h196v-996h216v-123h-216v-326h-133v326h-725zM262 448h582v866h-9q-192 -262 -318 -452t-255 -405v-9z" />
<glyph unicode="5" horiz-adv-x="1256" d="M152 373h134q11 -121 109 -201.5t235 -80.5q158 0 260 102t102 261t-101.5 261t-257.5 102q-106 0 -194.5 -48.5t-134.5 -131.5h-130l78 806h787v-123h-679l-48 -526h13q52 68 138 105t192 37q208 0 341 -134.5t133 -343.5q0 -214 -140 -351t-360 -137 q-197 0 -331.5 113.5t-145.5 289.5z" />
<glyph unicode="6" horiz-adv-x="1288" d="M130 691q0 368 144 575t401 207q179 0 304.5 -100t156.5 -269h-140q-27 113 -114.5 179.5t-208.5 66.5q-194 0 -301 -174.5t-109 -495.5h12q47 122 158.5 194t252.5 72q205 0 340.5 -136.5t135.5 -343.5q0 -215 -140.5 -355t-356.5 -140q-146 0 -258.5 70.5t-180.5 204.5 q-96 169 -96 445zM299 471q0 -161 104.5 -270t259.5 -109q154 0 257.5 106t103.5 263q0 160 -101.5 263t-258.5 103q-155 0 -260 -102.5t-105 -253.5z" />
<glyph unicode="7" horiz-adv-x="1161" d="M107 1320v123h940v-128l-661 -1315h-146l667 1309v11h-800z" />
<glyph unicode="8" horiz-adv-x="1294" d="M136 389q0 140 86.5 242t228.5 127v12q-118 28 -188.5 115.5t-70.5 205.5q0 167 128 274.5t327 107.5q200 0 327.5 -107t127.5 -275q0 -118 -70 -205.5t-188 -115.5v-12q141 -26 228 -127.5t87 -241.5q0 -186 -142.5 -302.5t-369.5 -116.5q-226 0 -368.5 117t-142.5 302z M274 398q0 -137 103.5 -223.5t269.5 -86.5t270 86.5t104 223.5q0 134 -103.5 217.5t-270.5 83.5q-166 0 -269.5 -83.5t-103.5 -217.5zM327 1080q0 -117 89 -190t231 -73q143 0 231.5 72.5t88.5 190.5q0 122 -89 198.5t-231 76.5t-231 -76.5t-89 -198.5z" />
<glyph unicode="9" horiz-adv-x="1288" d="M126 976q0 216 140.5 356.5t356.5 140.5q146 0 258.5 -71.5t180.5 -205.5q96 -168 96 -444q0 -368 -143.5 -574.5t-401.5 -206.5q-181 0 -305.5 100t-155.5 268h140q27 -112 113.5 -179t209.5 -67q190 0 296 166.5t114 470.5q1 6 -2.5 18t-3.5 15h-3h-3 q-47 -120 -158.5 -192.5t-252.5 -72.5q-207 0 -341.5 135.5t-134.5 342.5zM264 980q0 -158 101 -260.5t259 -102.5q155 0 260 102.5t105 252.5q0 161 -104.5 270.5t-259.5 109.5q-154 0 -257.5 -107t-103.5 -265z" />
<glyph unicode=":" horiz-adv-x="593" d="M191 97q0 44 31 75t75 31t74.5 -31t30.5 -75t-30.5 -74.5t-74.5 -30.5t-75 30.5t-31 74.5zM191 876q0 44 31 75t75 31t74.5 -31t30.5 -75t-30.5 -75t-74.5 -31t-75 31t-31 75z" />
<glyph unicode=";" horiz-adv-x="593" d="M126 -349l98 532h147l-145 -532h-100zM191 876q0 44 31 75t75 31t74.5 -31t30.5 -75t-30.5 -75t-74.5 -31t-75 31t-31 75z" />
<glyph unicode="&#x3c;" d="M228 522v109l865 531v-143l-733 -437v-12l733 -436v-143z" />
<glyph unicode="=" d="M163 331v115h995v-115h-995zM163 714v115h995v-115h-995z" />
<glyph unicode="&#x3e;" d="M228 -9v143l732 436v12l-732 437v143l865 -531v-109z" />
<glyph unicode="?" horiz-adv-x="1020" d="M82 1079q9 165 120 271t299 106q179 0 294.5 -102t115.5 -256q0 -108 -52.5 -190.5t-158.5 -150.5q-98 -63 -133 -115.5t-35 -136.5v-75h-133v94q-1 99 45 169t153 138q95 62 134 120.5t39 140.5q0 107 -77 176t-197 69t-197 -70t-87 -188h-130zM366 98q0 50 31.5 81.5 t80.5 31.5t80 -31.5t31 -81.5q0 -49 -31 -80.5t-80 -31.5t-80.5 31.5t-31.5 80.5z" />
<glyph unicode="@" horiz-adv-x="1871" d="M138 604q0 242 104 431t291.5 294t427.5 105q233 0 415.5 -94t283.5 -263.5t101 -386.5q0 -242 -94 -382t-257 -140q-93 0 -155.5 51t-70.5 133h-13q-34 -85 -101 -131t-158 -46q-155 0 -252 117t-97 305q0 184 97.5 300t251.5 116q84 0 152 -44t96 -117h13v141h116v-575 q0 -72 36.5 -110t104.5 -38q103 0 162 113t59 309q0 188 -88 334.5t-247 227.5t-364 81q-151 0 -282 -55t-224 -152t-146 -233.5t-53 -294.5q0 -331 199 -532t526 -201q223 0 332 44v-99q-132 -44 -333 -44q-378 0 -605.5 228.5t-227.5 607.5zM686 594q0 -142 66 -226 t176 -84q111 0 177 86t66 229q0 141 -65.5 224t-176.5 83q-110 0 -176.5 -85.5t-66.5 -226.5z" />
<glyph unicode="A" horiz-adv-x="1363" d="M74 0l540 1443h136l539 -1443h-144l-160 442h-606l-160 -442h-145zM420 560h524l-256 704h-13z" />
<glyph unicode="B" horiz-adv-x="1319" d="M185 0v1443h519q199 0 314 -95.5t115 -260.5q0 -121 -74 -209.5t-190 -108.5v-13q153 -17 245.5 -113t92.5 -244q0 -189 -129 -294t-363 -105h-530zM322 121h374q181 0 276 73t95 212q0 137 -100 209.5t-288 72.5h-357v-567zM322 807h323q168 0 259 66.5t91 191.5 q0 121 -84.5 189t-232.5 68h-356v-515z" />
<glyph unicode="C" horiz-adv-x="1455" d="M127 721q0 347 171 549.5t464 202.5q147 0 271.5 -60.5t205 -168t99.5 -242.5h-139q-31 153 -152.5 248.5t-284.5 95.5q-227 0 -361 -169.5t-134 -455.5q0 -287 134 -455.5t362 -168.5q167 0 286.5 86t149.5 228h139q-31 -199 -188.5 -320t-386.5 -121q-294 0 -465 202 t-171 549z" />
<glyph unicode="D" horiz-adv-x="1471" d="M185 0v1443h475q327 0 506 -191t179 -530q0 -340 -178.5 -531t-506.5 -191h-475zM322 124h330q263 0 408 158t145 439t-145 439.5t-408 158.5h-330v-1195z" />
<glyph unicode="E" horiz-adv-x="1197" d="M185 0v1443h872v-124h-735v-519h698v-122h-698v-554h735v-124h-872z" />
<glyph unicode="F" horiz-adv-x="1155" d="M185 0v1443h856v-124h-719v-542h661v-122h-661v-655h-137z" />
<glyph unicode="G" horiz-adv-x="1506" d="M127 722q0 339 176 545t467 206q231 0 391.5 -123t199.5 -329h-139q-45 155 -163 240t-289 85q-229 0 -366 -170t-137 -454q0 -285 137.5 -455t368.5 -170q212 0 339 123.5t127 327.5v50h-440v121h576v-160q0 -268 -164 -428.5t-438 -160.5q-293 0 -469.5 205.5 t-176.5 546.5z" />
<glyph unicode="H" horiz-adv-x="1488" d="M185 0v1443h137v-642h844v642h137v-1443h-137v677h-844v-677h-137z" />
<glyph unicode="I" horiz-adv-x="507" d="M185 0v1443h137v-1443h-137z" />
<glyph unicode="J" horiz-adv-x="1088" d="M92 330h136q5 -103 78 -168t186 -65q131 0 202.5 78.5t71.5 222.5v1045h137v-1050q0 -197 -110 -310t-300 -113q-175 0 -287.5 100.5t-113.5 259.5z" />
<glyph unicode="K" horiz-adv-x="1311" d="M185 0v1443h137v-746h12l683 746h171l-578 -623l637 -820h-177l-555 725l-193 -210v-515h-137z" />
<glyph unicode="L" horiz-adv-x="1139" d="M185 0v1443h137v-1319h722v-124h-859z" />
<glyph unicode="M" horiz-adv-x="1761" d="M185 0v1443h157l533 -1256h12l531 1256h158v-1443h-128v1177h-10l-498 -1170h-119l-498 1170h-9v-1177h-129z" />
<glyph unicode="N" horiz-adv-x="1494" d="M185 0v1443h135l841 -1198h13v1198h135v-1443h-132l-844 1199h-13v-1199h-135z" />
<glyph unicode="O" horiz-adv-x="1561" d="M127 722q0 346 176 548.5t478 202.5q303 0 477.5 -202t174.5 -549t-174.5 -549.5t-477.5 -202.5q-304 0 -479 202.5t-175 549.5zM267 722q0 -286 138 -455.5t376 -169.5q237 0 374.5 169.5t137.5 455.5q0 287 -137.5 455.5t-374.5 168.5q-236 0 -375 -168.5t-139 -455.5z " />
<glyph unicode="P" horiz-adv-x="1272" d="M185 0v1443h513q207 0 334.5 -125t127.5 -327q0 -199 -129 -323t-335 -124h-374v-544h-137zM322 666h343q167 0 261.5 86.5t94.5 238.5q0 156 -93.5 243t-262.5 87h-343v-655z" />
<glyph unicode="Q" horiz-adv-x="1561" d="M127 721q0 348 176 550t478 202q301 0 476.5 -202.5t175.5 -549.5q0 -219 -70 -384t-200 -253l183 -253h-154l-140 191q-122 -52 -271 -52q-304 0 -479 201t-175 550zM267 721q0 -288 139 -456t376 -168q104 0 192 35l-194 263h155l148 -198q101 73 155.5 208.5 t54.5 315.5q0 287 -138.5 456t-373.5 169q-236 0 -375 -169t-139 -456z" />
<glyph unicode="R" horiz-adv-x="1309" d="M185 0v1443h517q211 0 336 -114.5t125 -307.5q0 -153 -82 -261.5t-227 -146.5l350 -613h-160l-332 591h-21h-369v-591h-137zM322 713h369q157 0 244.5 80t87.5 224q0 142 -90 223t-248 81h-363v-608z" />
<glyph unicode="S" horiz-adv-x="1284" d="M115 375h138q14 -124 126.5 -202t277.5 -78q161 0 266 80t105 201q0 102 -77.5 170t-244.5 109l-165 42q-203 50 -294 139.5t-91 236.5q0 176 137.5 288t356.5 112q206 0 345 -108.5t150 -274.5h-138q-17 116 -114.5 187t-246.5 71q-155 0 -252.5 -76.5t-97.5 -194.5 q0 -94 72 -153.5t237 -100.5l143 -36q223 -55 321.5 -148.5t98.5 -247.5q0 -189 -143.5 -305t-379.5 -116q-224 0 -370.5 112t-159.5 293z" />
<glyph unicode="T" horiz-adv-x="1280" d="M88 1319v124h1104v-124h-484v-1319h-136v1319h-484z" />
<glyph unicode="U" horiz-adv-x="1494" d="M189 500v943h136v-934q0 -183 114 -296t308 -113t308 113t114 296v934h137v-943q0 -237 -151 -381.5t-408 -144.5q-256 0 -407 144.5t-151 381.5z" />
<glyph unicode="V" horiz-adv-x="1363" d="M74 1443h144l457 -1264h13l457 1264h144l-539 -1443h-136z" />
<glyph unicode="W" horiz-adv-x="1956" d="M95 1443h142l317 -1230h9l347 1230h136l347 -1230h9l317 1230h142l-397 -1443h-127l-354 1205h-10l-354 -1205h-127z" />
<glyph unicode="X" horiz-adv-x="1366" d="M95 0l504 724l-500 719h165l418 -609h11l422 609h156l-508 -724l500 -719h-164l-416 606h-11l-421 -606h-156z" />
<glyph unicode="Y" d="M75 1443h157l423 -680h12l423 680h156l-517 -819v-624h-136v624z" />
<glyph unicode="Z" horiz-adv-x="1328" d="M138 0v99l863 1208v12h-834v124h1011v-100l-860 -1207v-12h872v-124h-1052z" />
<glyph unicode="[" horiz-adv-x="751" d="M265 -304v1810h404v-106h-275v-1599h280v-105h-409z" />
<glyph unicode="\" horiz-adv-x="676" d="M20 1506h118l518 -1810h-118z" />
<glyph unicode="]" horiz-adv-x="751" d="M77 -199h280v1599h-280v106h409v-1810h-409v105z" />
<glyph unicode="^" horiz-adv-x="947" d="M106 794l298 622h140l298 -622h-127l-235 508h-12l-236 -508h-126z" />
<glyph unicode="_" horiz-adv-x="919" d="M-8 -122h935v-100h-935v100z" />
<glyph unicode="`" horiz-adv-x="999" d="M291 1594h168l250 -327h-149z" />
<glyph unicode="a" horiz-adv-x="1125" d="M106 298q0 140 100 220.5t288 93.5l337 22v104q0 116 -68.5 178t-199.5 62q-111 0 -186.5 -44.5t-94.5 -122.5h-133q19 128 133.5 206t284.5 78q189 0 292.5 -93.5t103.5 -262.5v-739h-126v185h-12q-49 -96 -143 -149.5t-213 -53.5q-160 0 -261.5 86.5t-101.5 229.5z M241 300q0 -92 70 -147t180 -55q145 0 242.5 87.5t97.5 215.5v126l-319 -23q-271 -19 -271 -204z" />
<glyph unicode="b" horiz-adv-x="1252" d="M179 0v1506h131v-638h12q45 105 143 166t220 61q205 0 329 -152t124 -404q0 -251 -124.5 -404t-328.5 -153q-124 0 -222 62t-146 171h-13v-215h-125zM307 539q0 -199 96 -318.5t255 -119.5t252 118.5t93 320.5q0 201 -93 319t-252 118t-255 -119.5t-96 -318.5z" />
<glyph unicode="c" horiz-adv-x="1145" d="M115 542q0 253 131.5 403t353.5 150q180 0 298.5 -94.5t143.5 -240.5h-133q-26 96 -107.5 156.5t-201.5 60.5q-161 0 -255.5 -118t-94.5 -317q0 -202 95 -321.5t255 -119.5q120 0 201.5 55t106.5 154h133q-25 -148 -142 -238t-298 -90q-223 0 -354.5 151.5t-131.5 408.5z " />
<glyph unicode="d" horiz-adv-x="1256" d="M115 538q0 250 125.5 403.5t330.5 153.5q123 0 220 -61t143 -167h12v639h131v-1506h-126v215h-12q-48 -108 -146.5 -170.5t-221.5 -62.5q-206 0 -331 152.5t-125 403.5zM250 539q0 -201 94.5 -319.5t254.5 -118.5q159 0 254 119t95 319q0 198 -95.5 318t-253.5 120 q-160 0 -254.5 -119t-94.5 -319z" />
<glyph unicode="e" horiz-adv-x="1174" d="M115 538q0 254 130.5 405.5t350.5 151.5q215 0 339 -143t124 -390v-58h-809v-6q5 -183 99.5 -291t250.5 -108q114 0 194 43.5t115 123.5h133q-40 -132 -158 -208t-287 -76q-222 0 -352 150.5t-130 405.5zM251 612h671q-2 167 -91.5 267t-235.5 100q-147 0 -241 -100.5 t-103 -266.5z" />
<glyph unicode="f" horiz-adv-x="718" d="M62 966v111h179v138q0 149 74 225t215 76q59 0 106 -10v-108q-32 6 -81 6q-183 0 -183 -192v-135h254v-111h-254v-966h-131v966h-179z" />
<glyph unicode="g" horiz-adv-x="1242" d="M115 552q0 244 124 393.5t330 149.5q123 0 223 -63t144 -168h12v213h126v-1093q0 -176 -128 -282t-340 -106q-184 0 -301 75.5t-138 202.5h139q18 -75 98 -119t202 -44q156 0 246.5 76t90.5 207v242h-13q-48 -107 -142.5 -166t-218.5 -59q-207 0 -330.5 148.5 t-123.5 392.5zM250 552q0 -193 92.5 -308.5t252.5 -115.5q161 0 255.5 115t94.5 307q0 193 -95.5 310t-254.5 117q-160 0 -252.5 -115.5t-92.5 -309.5z" />
<glyph unicode="h" horiz-adv-x="1210" d="M179 0v1506h131v-623h12q44 101 135 156.5t219 55.5q174 0 274 -104.5t100 -290.5v-700h-131v667q0 152 -71.5 231t-206.5 79q-151 0 -241 -93.5t-90 -243.5v-640h-131z" />
<glyph unicode="i" horiz-adv-x="480" d="M143 1415q0 40 28.5 68.5t68.5 28.5t69 -28.5t29 -68.5q0 -41 -29 -69.5t-69 -28.5t-68.5 29t-28.5 69zM175 0v1077h131v-1077h-131z" />
<glyph unicode="j" horiz-adv-x="480" d="M-21 -254h21q94 0 134.5 42.5t40.5 139.5v1149h131v-1145q0 -156 -74.5 -227.5t-228.5 -71.5h-24v113zM143 1415q0 40 28.5 68.5t68.5 28.5t69 -28.5t29 -68.5q0 -41 -29 -69.5t-69 -28.5t-68.5 29t-28.5 69z" />
<glyph unicode="k" horiz-adv-x="1092" d="M179 0v1506h131v-933h12l526 504h164l-481 -462l503 -615h-168l-434 531l-122 -113v-418h-131z" />
<glyph unicode="l" horiz-adv-x="489" d="M179 0v1506h131v-1506h-131z" />
<glyph unicode="m" horiz-adv-x="1772" d="M169 0v1077h125v-194h13q35 99 117.5 155.5t193.5 56.5t190.5 -56.5t114.5 -155.5h13q42 98 131.5 155t204.5 57q162 0 251.5 -93.5t89.5 -264.5v-737h-131v707q0 132 -63.5 201t-185.5 69q-123 0 -200 -83.5t-77 -210.5v-683h-131v721q0 116 -68 186t-180 70 q-117 0 -197 -92t-80 -224v-661h-131z" />
<glyph unicode="n" horiz-adv-x="1192" d="M169 0v1077h125v-194h13q43 101 132 156.5t216 55.5q180 0 278.5 -103.5t98.5 -291.5v-700h-131v667q0 310 -281 310q-143 0 -231.5 -92.5t-88.5 -244.5v-640h-131z" />
<glyph unicode="o" horiz-adv-x="1208" d="M115 539q0 258 131.5 407t357.5 149t358 -149t132 -407t-132 -407.5t-358 -149.5t-357.5 149.5t-131.5 407.5zM250 539q0 -205 94 -321.5t260 -116.5t260 116.5t94 321.5t-94 321.5t-260 116.5t-260 -116.5t-94 -321.5z" />
<glyph unicode="p" horiz-adv-x="1242" d="M169 -357v1434h125v-220h12q50 111 148 174.5t221 63.5q205 0 329 -152.5t124 -403.5t-124.5 -404t-328.5 -153q-125 0 -221.5 59.5t-141.5 163.5h-12v-562h-131zM296 539q0 -198 96 -318t254 -120q160 0 253.5 118t93.5 319q0 202 -93.5 320.5t-252.5 118.5 q-158 0 -254.5 -120t-96.5 -318z" />
<glyph unicode="q" horiz-adv-x="1246" d="M115 539q0 250 125 403t330 153q122 0 221.5 -64.5t146.5 -173.5h12v220h127v-1434h-133v562h-12q-50 -106 -144.5 -164.5t-217.5 -58.5q-205 0 -330 153t-125 404zM250 539q0 -201 93.5 -319.5t252.5 -118.5q160 0 256 119.5t96 318.5q0 198 -96 318t-255 120t-253 -119 t-94 -319z" />
<glyph unicode="r" horiz-adv-x="764" d="M169 0v1077h125v-177h13q27 88 110 141.5t190 53.5q64 0 101 -9v-131q-45 13 -117 13q-125 0 -208 -84.5t-83 -211.5v-672h-131z" />
<glyph unicode="s" horiz-adv-x="1058" d="M111 270h136q22 -82 97 -129t191 -47q119 0 198 55t79 139q0 70 -51 113.5t-160 69.5l-163 39q-152 37 -223 103.5t-71 178.5q0 129 112.5 216t276.5 87q163 0 270 -75.5t125 -203.5h-129q-18 76 -89.5 121.5t-177.5 45.5q-107 0 -181.5 -53t-74.5 -133q0 -66 52 -107 t162 -67l148 -35q159 -38 234 -106.5t75 -183.5q0 -138 -119 -227t-297 -89q-176 0 -290 77.5t-130 210.5z" />
<glyph unicode="t" horiz-adv-x="724" d="M61 966v111h176v280h131v-280h249v-111h-249v-668q0 -99 40 -143.5t131 -44.5q45 0 78 3v-112q-40 -7 -92 -7q-155 0 -221.5 63.5t-66.5 210.5v698h-176z" />
<glyph unicode="u" horiz-adv-x="1193" d="M160 377v700h131v-667q0 -151 70.5 -229.5t208.5 -78.5q150 0 236.5 90.5t86.5 244.5v640h131v-1077h-125v194h-12q-41 -101 -132 -156.5t-219 -55.5q-179 0 -277.5 104.5t-98.5 290.5z" />
<glyph unicode="v" horiz-adv-x="1078" d="M67 1077h140l326 -934h12l325 934h141l-402 -1077h-140z" />
<glyph unicode="w" horiz-adv-x="1566" d="M67 1077h133l239 -914h12l266 914h131l266 -914h12l241 914h132l-307 -1077h-139l-265 894h-13l-265 -894h-138z" />
<glyph unicode="x" horiz-adv-x="1049" d="M70 1077h158l293 -430h12l291 430h151l-378 -530l382 -547h-157l-293 440h-12l-294 -440h-150l380 542z" />
<glyph unicode="y" horiz-adv-x="1079" d="M67 1077h142l326 -934h12l325 934h140l-419 -1129q-72 -194 -144 -261.5t-204 -67.5q-27 0 -61 4v114q20 -4 59 -4q74 0 120 43t86 150l22 67z" />
<glyph unicode="z" horiz-adv-x="1082" d="M131 0v100l660 854v12h-659v111h816v-101l-658 -853v-12h660v-111h-819z" />
<glyph unicode="{" horiz-adv-x="751" d="M77 523v157q127 0 175 47.5t48 170.5v281q0 169 78 248t243 79h53v-109h-42q-109 0 -157.5 -53.5t-48.5 -178.5v-320q0 -110 -53.5 -166.5t-169.5 -65.5v-22q116 -9 169.5 -65.5t53.5 -166.5v-319q0 -125 49.5 -180t156.5 -55h42v-109h-53q-165 0 -243 79.5t-78 249.5 v281q0 122 -48 169.5t-175 47.5z" />
<glyph unicode="|" horiz-adv-x="676" d="M281 -304v1810h113v-1810h-113z" />
<glyph unicode="}" horiz-adv-x="751" d="M77 -195h42q107 0 156.5 55t49.5 180v319q0 110 53.5 166.5t169.5 65.5v22q-116 9 -169.5 65.5t-53.5 166.5v320q0 125 -48.5 178.5t-157.5 53.5h-42v109h53q165 0 243 -79t78 -248v-281q0 -123 48 -170.5t175 -47.5v-157q-127 0 -175 -47.5t-48 -169.5v-281 q0 -170 -78 -249.5t-243 -79.5h-53v109z" />
<glyph unicode="~" horiz-adv-x="1204" d="M117 559q0 149 73.5 235.5t203.5 86.5q60 0 114.5 -28.5t125.5 -96.5q58 -57 98 -80.5t78 -23.5q68 0 110 53t47 147h122q1 -148 -74 -237t-203 -89q-66 0 -121 27.5t-127 96.5q-61 60 -98.5 82.5t-74.5 22.5q-67 0 -106.5 -51.5t-44.5 -144.5h-123z" />
<glyph unicode="&#xa1;" horiz-adv-x="617" d="M197 1007q0 49 31.5 80.5t80.5 31.5t80 -31.5t31 -80.5t-31 -80.5t-80 -31.5t-80.5 31.5t-31.5 80.5zM233 -340l12 986h127l11 -986h-150z" />
<glyph unicode="&#xa2;" d="M164 715q0 230 126 378t326 170v183h131v-182q159 -17 273 -108.5t137 -223.5h-133q-32 99 -124 158t-217 59q-165 0 -274.5 -119.5t-109.5 -314.5q0 -198 110 -320t274 -122q135 0 225.5 57t114.5 153h133q-24 -135 -135 -222.5t-274 -102.5v-187h-131v189 q-200 22 -326 172t-126 383z" />
<glyph unicode="&#xa3;" d="M125 0v119q143 33 235.5 127.5t92.5 222.5q0 81 -37 196h-276v112h236q-22 60 -34.5 98t-23.5 93t-11 103q0 188 130.5 296.5t361.5 108.5q95 0 178 -16t131 -40v-123q-41 24 -125.5 40.5t-176.5 16.5q-170 0 -265 -75.5t-95 -204.5q0 -48 11 -104t23.5 -93.5t34.5 -99.5 h470v-112h-431q34 -105 34 -191q0 -125 -69 -212.5t-171 -129.5v-14h840v-118h-1063z" />
<glyph unicode="&#xa4;" d="M182 259l168 169q-75 102 -75 228t75 228l-168 168l82 82l168 -168q101 76 229 76q127 0 228 -76l168 168l82 -82l-167 -168q75 -102 75 -228q0 -128 -76 -229l168 -168l-82 -82l-168 168q-102 -75 -228 -75q-127 0 -228 76l-169 -169zM375 656q0 -118 84 -202t202 -84 t202 84t84 202t-84 202t-202 84t-202 -84t-84 -202z" />
<glyph unicode="&#xa5;" d="M75 1443h156l423 -670h13l423 670h156l-472 -738h259v-106h-304v-184h304v-105h-304v-310h-137v310h-304v105h304v184h-304v106h259z" />
<glyph unicode="&#xa6;" horiz-adv-x="676" d="M281 -304v722h113v-722h-113zM281 781v725h113v-725h-113z" />
<glyph unicode="&#xa7;" horiz-adv-x="1037" d="M112 549q0 99 64 169t178 97v12q-230 79 -230 268q0 133 108 216.5t279 83.5q164 0 270 -75.5t123 -203.5h-132q-12 76 -83.5 121.5t-179.5 45.5q-112 0 -182.5 -50.5t-70.5 -130.5q0 -67 52.5 -111t167.5 -73l129 -34q166 -42 243 -110t77 -172t-72.5 -181t-190.5 -99 v-12q254 -60 254 -257q0 -133 -110 -218t-282 -85q-167 0 -278 79.5t-122 207.5h134q11 -78 86 -126t186 -48q113 0 184.5 51t71.5 131q0 67 -53 110.5t-169 72.5l-129 33q-167 43 -245 112.5t-78 175.5zM247 573q0 -145 212 -193l81 -18q108 1 179 61t71 149 q0 147 -211 193l-81 18q-107 -1 -179 -61.5t-72 -148.5z" />
<glyph unicode="&#xa8;" horiz-adv-x="998" d="M215 1354q0 43 30 72.5t72 29.5q43 0 72.5 -29.5t29.5 -72.5t-29.5 -72.5t-72.5 -29.5q-42 0 -72 29.5t-30 72.5zM579 1354q0 43 30 72.5t72 29.5q43 0 72.5 -29.5t29.5 -72.5t-29.5 -72.5t-72.5 -29.5q-42 0 -72 29.5t-30 72.5z" />
<glyph unicode="&#xa9;" horiz-adv-x="1742" d="M88 626q0 164 60.5 310t164.5 250t249.5 164t308.5 60q164 0 309 -60t249 -164t164.5 -249.5t60.5 -310.5q0 -164 -60.5 -309.5t-164.5 -249.5t-249 -164.5t-309 -60.5q-163 0 -308 60.5t-249 164.5t-165 249.5t-61 309.5zM198 626q0 -189 88.5 -344t243 -243t341.5 -88 q141 0 265.5 52t214 141.5t141.5 214.5t52 267t-52 267.5t-141 215t-214 141t-266 51.5t-265.5 -51.5t-214 -141t-141.5 -215t-52 -267.5zM486 630q0 194 108 308.5t286 114.5q141 0 239 -76.5t119 -196.5h-108q-21 79 -88 127t-162 48q-128 0 -206 -87.5t-78 -237.5 q0 -152 78 -241.5t206 -89.5q100 0 165 45.5t84 123.5h109q-21 -122 -117 -194t-240 -72q-178 0 -286.5 116t-108.5 312z" />
<glyph unicode="&#xaa;" horiz-adv-x="957" d="M108 800q0 118 84.5 186.5t243.5 78.5l265 18v83q0 87 -58.5 136t-161.5 49q-86 0 -143 -36t-69 -98h-126q13 112 105.5 177.5t236.5 65.5q159 0 249.5 -79.5t90.5 -218.5v-609h-119v142h-12q-38 -76 -115.5 -119.5t-175.5 -43.5q-132 0 -213.5 74t-81.5 194zM237 804 q0 -75 55 -120.5t145 -45.5q112 0 189 68.5t77 169.5v114l-250 -19q-216 -17 -216 -167z" />
<glyph unicode="&#xab;" horiz-adv-x="1363" d="M185 563v6l359 414h157l-357 -411v-13l357 -410h-157zM636 563v6l359 414h157l-357 -411v-13l357 -410h-158z" />
<glyph unicode="&#xac;" d="M183 563v114h954v-532h-114v418h-840z" />
<glyph unicode="&#xad;" horiz-adv-x="975" d="M159 520v124h656v-124h-656z" />
<glyph unicode="&#xae;" horiz-adv-x="1260" d="M115 975q0 142 68.5 260.5t187 186.5t259.5 68q106 0 201.5 -40.5t164 -109t109 -164t40.5 -201.5q0 -142 -68 -260.5t-186.5 -187t-260.5 -68.5q-141 0 -259.5 68.5t-187 187t-68.5 260.5zM199 975q0 -181 125 -306.5t306 -125.5t306 125.5t125 306.5t-125 306t-306 125 t-306 -125t-125 -306zM437 729v515h232q77 0 126.5 -44t49.5 -114q0 -61 -33 -100.5t-89 -51.5l145 -205h-98l-138 194h-115v-194h-80zM517 993h130q110 0 110 91q0 41 -27.5 64t-80.5 23h-132v-178z" />
<glyph unicode="&#xaf;" horiz-adv-x="986" d="M169 1292v106h648v-106h-648z" />
<glyph unicode="&#xb0;" horiz-adv-x="859" d="M119 1152q0 130 89 220.5t221 90.5t221.5 -90.5t89.5 -220.5q0 -131 -89 -221t-222 -90t-221.5 90t-88.5 221zM220 1152q0 -87 59 -149t150 -62t151 62t60 149q0 88 -60 149t-151 61q-90 0 -149.5 -61t-59.5 -149z" />
<glyph unicode="&#xb1;" d="M159 112v114h1002v-114h-1002zM159 671v105h444v309h115v-309h443v-105h-443v-317h-115v317h-444z" />
<glyph unicode="&#xb2;" horiz-adv-x="801" d="M98 1537v1q1 120 84 196t214 76q129 0 211.5 -71t82.5 -181q0 -68 -41 -136t-155 -183l-216 -220v-12h432v-105h-606v85l306 318q92 94 125 145t33 101q0 68 -49.5 113t-125.5 45q-78 0 -127 -47.5t-51 -123.5v-1h-117z" />
<glyph unicode="&#xb3;" horiz-adv-x="827" d="M90 1138h120q5 -68 61 -111t141 -43q87 0 144 46.5t57 118.5q0 75 -55.5 118t-152.5 43h-107v96h105q79 0 128.5 42.5t49.5 110.5q0 65 -49 106.5t-126 41.5q-76 0 -125.5 -41.5t-54.5 -109.5h-117q5 115 87 183.5t214 68.5q125 0 208.5 -66.5t83.5 -166.5 q0 -78 -46.5 -134t-123.5 -71v-13q95 -7 151.5 -65.5t56.5 -149.5q0 -113 -93.5 -187.5t-235.5 -74.5q-137 0 -227 72t-94 186z" />
<glyph unicode="&#xb4;" horiz-adv-x="999" d="M273 1267l250 327h168l-269 -327h-149z" />
<glyph unicode="&#xb5;" horiz-adv-x="1255" d="M172 -357v1434h131v-663q0 -153 71 -232.5t206 -79.5q142 0 227 91.5t85 243.5v640h131v-834q0 -76 24 -106.5t81 -30.5q26 0 54 6v-112q-33 -10 -78 -10q-100 0 -147 40t-58 135l-1 28h-13q-85 -211 -310 -211q-95 0 -163.5 41t-96.5 117h-12v-497h-131z" />
<glyph unicode="&#xb6;" horiz-adv-x="1316" d="M195 1004q0 193 133.5 316t341.5 123h156v-1638h-137v770h-20q-205 0 -339.5 122t-134.5 307zM984 -195v1638h137v-1638h-137z" />
<glyph unicode="&#xb7;" horiz-adv-x="630" d="M203 738q0 46 33 79.5t79 33.5t79 -33t33 -80q0 -46 -33 -79t-79 -33t-79 33t-33 79z" />
<glyph unicode="&#xb8;" horiz-adv-x="999" d="M315 -370q50 -18 127 -18q60 0 96 24t36 66q0 81 -155 81h-55v67l70 170h96v-20l-54 -135q100 0 156.5 -41.5t56.5 -118.5q0 -81 -63 -131.5t-168 -50.5q-78 0 -143 20v87z" />
<glyph unicode="&#xb9;" horiz-adv-x="625" d="M79 1512v119q169 116 238 161h119v-890h-119v766h-12q-17 -11 -117.5 -81t-108.5 -75z" />
<glyph unicode="&#xba;" horiz-adv-x="1032" d="M107 996q0 214 110.5 339t298.5 125q189 0 299.5 -124.5t110.5 -339.5t-110.5 -339.5t-299.5 -124.5t-299 124.5t-110 339.5zM239 996q0 -166 74 -259t203 -93q130 0 204 93t74 259q0 167 -74 260t-204 93q-129 0 -203 -93.5t-74 -259.5z" />
<glyph unicode="&#xbb;" horiz-adv-x="1363" d="M211 149l357 410v13l-357 411h157l359 -414v-6l-358 -414h-158zM662 149l357 410v13l-357 411h157l359 -414v-6l-359 -414h-157z" />
<glyph unicode="&#xbc;" horiz-adv-x="1945" d="M79 1163v119q169 116 238 161h119v-890h-119v766h-12q-17 -11 -117.5 -81t-108.5 -75zM514 0l332 751l305 692h128l-318 -721l-319 -722h-128zM1136 186v108q95 161 400 596h176v-602h128v-102h-128v-186h-120v186h-456zM1253 285h341v505h-5q-234 -326 -336 -498v-7z " />
<glyph unicode="&#xbd;" horiz-adv-x="1945" d="M79 1163v119q169 116 238 161h119v-890h-119v766h-12q-17 -11 -117.5 -81t-108.5 -75zM514 0l332 751l305 692h128l-318 -721l-319 -722h-128zM1222 635v1q1 120 84 196t214 76q129 0 211.5 -71t82.5 -181q0 -68 -41 -136t-155 -183l-216 -220v-12h432v-105h-606v85 l306 318q92 94 125 145t33 101q0 68 -49.5 113t-125.5 45q-78 0 -127 -47.5t-51 -123.5v-1h-117z" />
<glyph unicode="&#xbe;" horiz-adv-x="2134" d="M90 789h120q5 -68 61 -111t141 -43q87 0 144 46.5t57 118.5q0 75 -55.5 118t-152.5 43h-107v96h105q79 0 128.5 42.5t49.5 110.5q0 65 -49 106.5t-126 41.5q-76 0 -125.5 -41.5t-54.5 -109.5h-117q5 115 87 183.5t214 68.5q125 0 208.5 -66.5t83.5 -166.5 q0 -78 -46.5 -134t-123.5 -71v-13q95 -7 151.5 -65.5t56.5 -149.5q0 -113 -93.5 -187.5t-235.5 -74.5q-137 0 -227 72t-94 186zM704 0l332 751l305 692h128l-318 -721l-319 -722h-128zM1326 186v108q95 161 400 596h176v-602h128v-102h-128v-186h-120v186h-456zM1443 285 h341v505h-5q-234 -326 -336 -498v-7z" />
<glyph unicode="&#xbf;" horiz-adv-x="1019" d="M109 3q0 108 52.5 190t157.5 150q98 62 133 114.5t35 136.5v76h133v-95q1 -98 -44.5 -168t-152.5 -139q-94 -61 -133.5 -120t-39.5 -139q0 -108 76.5 -177.5t197.5 -69.5q120 0 197 70t87 189h130q-9 -165 -120.5 -271.5t-298.5 -106.5q-180 0 -295 102.5t-115 257.5z M431 1006q0 48 32 80.5t80 32.5t79.5 -32.5t31.5 -80.5q0 -49 -31 -80.5t-80 -31.5t-80.5 31.5t-31.5 80.5z" />
<glyph unicode="&#xc0;" horiz-adv-x="1363" d="M74 0l540 1443h136l539 -1443h-144l-160 442h-606l-160 -442h-145zM283 1874h174l309 -297h-157zM420 560h524l-256 704h-13z" />
<glyph unicode="&#xc1;" horiz-adv-x="1363" d="M74 0l540 1443h136l539 -1443h-144l-160 442h-606l-160 -442h-145zM420 560h524l-256 704h-13zM595 1577l310 297h174l-326 -297h-158z" />
<glyph unicode="&#xc2;" horiz-adv-x="1363" d="M74 0l540 1443h136l539 -1443h-144l-160 442h-606l-160 -442h-145zM331 1577l289 297h124l289 -297h-155l-190 202h-12l-190 -202h-155zM420 560h524l-256 704h-13z" />
<glyph unicode="&#xc3;" horiz-adv-x="1363" d="M74 0l540 1443h136l539 -1443h-144l-160 442h-606l-160 -442h-145zM330 1580q0 121 56 191.5t153 70.5q43 0 79 -16.5t60.5 -39.5t46.5 -46t45.5 -39.5t47.5 -16.5q104 0 104 158h110q0 -121 -56 -191.5t-153 -70.5q-42 0 -78.5 16.5t-60.5 39.5t-46 46t-45.5 39.5 t-47.5 16.5q-104 0 -104 -158h-111zM420 560h524l-256 704h-13z" />
<glyph unicode="&#xc4;" horiz-adv-x="1363" d="M74 0l540 1443h136l539 -1443h-144l-160 442h-606l-160 -442h-145zM398 1670q0 43 30 72.5t72 29.5q43 0 72.5 -29.5t29.5 -72.5t-29.5 -72.5t-72.5 -29.5q-42 0 -72 29.5t-30 72.5zM420 560h524l-256 704h-13zM762 1670q0 43 30 72.5t72 29.5q43 0 72.5 -29.5 t29.5 -72.5t-29.5 -72.5t-72.5 -29.5q-42 0 -72 29.5t-30 72.5z" />
<glyph unicode="&#xc5;" horiz-adv-x="1363" d="M74 0l540 1443h136l539 -1443h-144l-160 442h-606l-160 -442h-145zM420 560h524l-256 704h-13zM492 1745q0 79 55.5 133.5t134.5 54.5t134.5 -54.5t55.5 -133.5t-55.5 -134t-134.5 -55t-134.5 55t-55.5 134zM569 1745q0 -48 32 -80.5t81 -32.5q48 0 80.5 32.5t32.5 80.5 t-32 80.5t-81 32.5t-81 -32.5t-32 -80.5z" />
<glyph unicode="&#xc6;" horiz-adv-x="1955" d="M74 0l678 1443h1063v-124h-677v-526h640v-122h-640v-547h677v-124h-813v443h-581l-208 -443h-139zM476 561h526v766h-161z" />
<glyph unicode="&#xc7;" horiz-adv-x="1455" d="M127 721q0 347 171 549.5t464 202.5q147 0 271.5 -60.5t205 -168t99.5 -242.5h-139q-31 153 -152.5 248.5t-284.5 95.5q-227 0 -361 -169.5t-134 -455.5q0 -287 134 -455.5t362 -168.5q167 0 286.5 86t149.5 228h139q-29 -188 -172.5 -307.5t-355.5 -132.5l-43 -106 q100 0 156.5 -41.5t56.5 -118.5q0 -81 -63 -131.5t-168 -50.5q-78 0 -143 20v87q50 -18 127 -18q60 0 96 24t36 66q0 81 -155 81h-55v67l50 122q-269 20 -423.5 220t-154.5 529z" />
<glyph unicode="&#xc8;" horiz-adv-x="1197" d="M185 0v1443h872v-124h-735v-519h698v-122h-698v-554h735v-124h-872zM222 1874h174l309 -297h-157z" />
<glyph unicode="&#xc9;" horiz-adv-x="1197" d="M185 0v1443h872v-124h-735v-519h698v-122h-698v-554h735v-124h-872zM534 1577l310 297h174l-326 -297h-158z" />
<glyph unicode="&#xca;" horiz-adv-x="1197" d="M185 0v1443h872v-124h-735v-519h698v-122h-698v-554h735v-124h-872zM270 1577l289 297h124l289 -297h-155l-190 202h-12l-190 -202h-155z" />
<glyph unicode="&#xcb;" horiz-adv-x="1197" d="M185 0v1443h872v-124h-735v-519h698v-122h-698v-554h735v-124h-872zM337 1670q0 43 30 72.5t72 29.5q43 0 72.5 -29.5t29.5 -72.5t-29.5 -72.5t-72.5 -29.5q-42 0 -72 29.5t-30 72.5zM701 1670q0 43 30 72.5t72 29.5q43 0 72.5 -29.5t29.5 -72.5t-29.5 -72.5t-72.5 -29.5 q-42 0 -72 29.5t-30 72.5z" />
<glyph unicode="&#xcc;" horiz-adv-x="507" d="M-145 1874h174l309 -297h-157zM185 0v1443h137v-1443h-137z" />
<glyph unicode="&#xcd;" horiz-adv-x="507" d="M167 1577l310 297h174l-326 -297h-158zM185 0v1443h137v-1443h-137z" />
<glyph unicode="&#xce;" horiz-adv-x="507" d="M-97 1577l289 297h124l289 -297h-155l-190 202h-12l-190 -202h-155zM185 0v1443h137v-1443h-137z" />
<glyph unicode="&#xcf;" horiz-adv-x="507" d="M-30 1670q0 43 30 72.5t72 29.5q43 0 72.5 -29.5t29.5 -72.5t-29.5 -72.5t-72.5 -29.5q-42 0 -72 29.5t-30 72.5zM185 0v1443h137v-1443h-137zM334 1670q0 43 30 72.5t72 29.5q43 0 72.5 -29.5t29.5 -72.5t-29.5 -72.5t-72.5 -29.5q-42 0 -72 29.5t-30 72.5z" />
<glyph unicode="&#xd0;" horiz-adv-x="1471" d="M22 681v124h163v638h475q327 0 506 -191t179 -530q0 -340 -178.5 -531t-506.5 -191h-475v681h-163zM322 124h330q263 0 408 158t145 439t-145 439.5t-408 158.5h-330v-514h272v-124h-272v-557z" />
<glyph unicode="&#xd1;" horiz-adv-x="1494" d="M185 0v1443h135l841 -1198h13v1198h135v-1443h-132l-844 1199h-13v-1199h-135zM395 1580q0 121 56 191.5t153 70.5q43 0 79 -16.5t60.5 -39.5t46.5 -46t45.5 -39.5t47.5 -16.5q104 0 104 158h110q0 -121 -56 -191.5t-153 -70.5q-42 0 -78.5 16.5t-60.5 39.5t-46 46 t-45.5 39.5t-47.5 16.5q-104 0 -104 -158h-111z" />
<glyph unicode="&#xd2;" horiz-adv-x="1561" d="M127 722q0 346 176 548.5t478 202.5q303 0 477.5 -202t174.5 -549t-174.5 -549.5t-477.5 -202.5q-304 0 -479 202.5t-175 549.5zM267 722q0 -286 138 -455.5t376 -169.5q237 0 374.5 169.5t137.5 455.5q0 287 -137.5 455.5t-374.5 168.5q-236 0 -375 -168.5t-139 -455.5z M382 1874h174l309 -297h-157z" />
<glyph unicode="&#xd3;" horiz-adv-x="1561" d="M127 722q0 346 176 548.5t478 202.5q303 0 477.5 -202t174.5 -549t-174.5 -549.5t-477.5 -202.5q-304 0 -479 202.5t-175 549.5zM267 722q0 -286 138 -455.5t376 -169.5q237 0 374.5 169.5t137.5 455.5q0 287 -137.5 455.5t-374.5 168.5q-236 0 -375 -168.5t-139 -455.5z M694 1577l310 297h174l-326 -297h-158z" />
<glyph unicode="&#xd4;" horiz-adv-x="1561" d="M127 722q0 346 176 548.5t478 202.5q303 0 477.5 -202t174.5 -549t-174.5 -549.5t-477.5 -202.5q-304 0 -479 202.5t-175 549.5zM267 722q0 -286 138 -455.5t376 -169.5q237 0 374.5 169.5t137.5 455.5q0 287 -137.5 455.5t-374.5 168.5q-236 0 -375 -168.5t-139 -455.5z M430 1577l289 297h124l289 -297h-155l-190 202h-12l-190 -202h-155z" />
<glyph unicode="&#xd5;" horiz-adv-x="1561" d="M127 722q0 346 176 548.5t478 202.5q303 0 477.5 -202t174.5 -549t-174.5 -549.5t-477.5 -202.5q-304 0 -479 202.5t-175 549.5zM267 722q0 -286 138 -455.5t376 -169.5q237 0 374.5 169.5t137.5 455.5q0 287 -137.5 455.5t-374.5 168.5q-236 0 -375 -168.5t-139 -455.5z M429 1580q0 121 56 191.5t153 70.5q43 0 79 -16.5t60.5 -39.5t46.5 -46t45.5 -39.5t47.5 -16.5q104 0 104 158h110q0 -121 -56 -191.5t-153 -70.5q-42 0 -78.5 16.5t-60.5 39.5t-46 46t-45.5 39.5t-47.5 16.5q-104 0 -104 -158h-111z" />
<glyph unicode="&#xd6;" horiz-adv-x="1561" d="M127 722q0 346 176 548.5t478 202.5q303 0 477.5 -202t174.5 -549t-174.5 -549.5t-477.5 -202.5q-304 0 -479 202.5t-175 549.5zM267 722q0 -286 138 -455.5t376 -169.5q237 0 374.5 169.5t137.5 455.5q0 287 -137.5 455.5t-374.5 168.5q-236 0 -375 -168.5t-139 -455.5z M497 1670q0 43 30 72.5t72 29.5q43 0 72.5 -29.5t29.5 -72.5t-29.5 -72.5t-72.5 -29.5q-42 0 -72 29.5t-30 72.5zM861 1670q0 43 30 72.5t72 29.5q43 0 72.5 -29.5t29.5 -72.5t-29.5 -72.5t-72.5 -29.5q-42 0 -72 29.5t-30 72.5z" />
<glyph unicode="&#xd7;" d="M266 265l313 315l-313 314l80 81l314 -314l314 313l81 -80l-313 -314l313 -314l-81 -81l-313 314l-315 -314z" />
<glyph unicode="&#xd8;" horiz-adv-x="1530" d="M127 722q0 346 176 548.5t478 202.5q236 0 399 -127l128 166l78 -55l-136 -177q183 -202 183 -558q0 -347 -174.5 -549.5t-477.5 -202.5q-254 0 -423 146l-142 -186l-79 59l152 198q-162 201 -162 535zM267 722q0 -255 111 -420l719 935q-127 109 -316 109 q-236 0 -375 -168.5t-139 -455.5zM442 226q134 -129 339 -129q237 0 374.5 169.5t137.5 455.5q0 277 -129 445z" />
<glyph unicode="&#xd9;" horiz-adv-x="1494" d="M189 500v943h136v-934q0 -183 114 -296t308 -113t308 113t114 296v934h137v-943q0 -237 -151 -381.5t-408 -144.5q-256 0 -407 144.5t-151 381.5zM348 1874h174l309 -297h-157z" />
<glyph unicode="&#xda;" horiz-adv-x="1494" d="M189 500v943h136v-934q0 -183 114 -296t308 -113t308 113t114 296v934h137v-943q0 -237 -151 -381.5t-408 -144.5q-256 0 -407 144.5t-151 381.5zM660 1577l310 297h174l-326 -297h-158z" />
<glyph unicode="&#xdb;" horiz-adv-x="1494" d="M189 500v943h136v-934q0 -183 114 -296t308 -113t308 113t114 296v934h137v-943q0 -237 -151 -381.5t-408 -144.5q-256 0 -407 144.5t-151 381.5zM396 1577l289 297h124l289 -297h-155l-190 202h-12l-190 -202h-155z" />
<glyph unicode="&#xdc;" horiz-adv-x="1494" d="M189 500v943h136v-934q0 -183 114 -296t308 -113t308 113t114 296v934h137v-943q0 -237 -151 -381.5t-408 -144.5q-256 0 -407 144.5t-151 381.5zM463 1670q0 43 30 72.5t72 29.5q43 0 72.5 -29.5t29.5 -72.5t-29.5 -72.5t-72.5 -29.5q-42 0 -72 29.5t-30 72.5zM827 1670 q0 43 30 72.5t72 29.5q43 0 72.5 -29.5t29.5 -72.5t-29.5 -72.5t-72.5 -29.5q-42 0 -72 29.5t-30 72.5z" />
<glyph unicode="&#xdd;" d="M75 1443h157l423 -680h12l423 680h156l-517 -819v-624h-136v624zM574 1577l310 297h174l-326 -297h-158z" />
<glyph unicode="&#xde;" horiz-adv-x="1270" d="M185 0v1443h137v-274h386q184 0 307.5 -111t123.5 -299q0 -126 -58.5 -220.5t-156 -142.5t-217.5 -48h-385v-348h-137zM322 470h352q149 0 237 75.5t88 213.5q0 137 -88 212t-237 75h-352v-576z" />
<glyph unicode="&#xdf;" horiz-adv-x="1229" d="M211 0v1101q0 181 109.5 286.5t292.5 105.5q177 0 289 -102.5t112 -262.5q0 -123 -67 -216.5t-169 -123.5v-13q156 -15 252 -114t96 -260q0 -179 -126.5 -298t-324.5 -119q-86 0 -155 14v119q61 -16 147 -16q148 0 238.5 84t90.5 217q0 137 -100 220t-274 83h-77v129h70 q120 0 195 77.5t75 209.5q0 111 -74 183t-196 72q-130 0 -202 -76.5t-72 -212.5v-1087h-130z" />
<glyph unicode="&#xe0;" horiz-adv-x="1125" d="M106 298q0 140 100 220.5t288 93.5l337 22v104q0 116 -68.5 178t-199.5 62q-111 0 -186.5 -44.5t-94.5 -122.5h-133q19 128 133.5 206t284.5 78q189 0 292.5 -93.5t103.5 -262.5v-739h-126v185h-12q-49 -96 -143 -149.5t-213 -53.5q-160 0 -261.5 86.5t-101.5 229.5z M241 300q0 -92 70 -147t180 -55q145 0 242.5 87.5t97.5 215.5v126l-319 -23q-271 -19 -271 -204zM246 1594h168l250 -327h-149z" />
<glyph unicode="&#xe1;" horiz-adv-x="1125" d="M106 298q0 140 100 220.5t288 93.5l337 22v104q0 116 -68.5 178t-199.5 62q-111 0 -186.5 -44.5t-94.5 -122.5h-133q19 128 133.5 206t284.5 78q189 0 292.5 -93.5t103.5 -262.5v-739h-126v185h-12q-49 -96 -143 -149.5t-213 -53.5q-160 0 -261.5 86.5t-101.5 229.5z M241 300q0 -92 70 -147t180 -55q145 0 242.5 87.5t97.5 215.5v126l-319 -23q-271 -19 -271 -204zM478 1267l250 327h168l-269 -327h-149z" />
<glyph unicode="&#xe2;" horiz-adv-x="1125" d="M106 298q0 140 100 220.5t288 93.5l337 22v104q0 116 -68.5 178t-199.5 62q-111 0 -186.5 -44.5t-94.5 -122.5h-133q19 128 133.5 206t284.5 78q189 0 292.5 -93.5t103.5 -262.5v-739h-126v185h-12q-49 -96 -143 -149.5t-213 -53.5q-160 0 -261.5 86.5t-101.5 229.5z M215 1228l275 332h154l275 -332h-153l-193 243h-12l-193 -243h-153zM241 300q0 -92 70 -147t180 -55q145 0 242.5 87.5t97.5 215.5v126l-319 -23q-271 -19 -271 -204z" />
<glyph unicode="&#xe3;" horiz-adv-x="1125" d="M106 298q0 140 100 220.5t288 93.5l337 22v104q0 116 -68.5 178t-199.5 62q-111 0 -186.5 -44.5t-94.5 -122.5h-133q19 128 133.5 206t284.5 78q189 0 292.5 -93.5t103.5 -262.5v-739h-126v185h-12q-49 -96 -143 -149.5t-213 -53.5q-160 0 -261.5 86.5t-101.5 229.5z M216 1230q0 121 56 191.5t153 70.5q43 0 79 -16.5t60.5 -39.5t46.5 -46t45.5 -39.5t47.5 -16.5q104 0 104 158h110q0 -121 -56 -191.5t-153 -70.5q-42 0 -78.5 16.5t-60.5 39.5t-46 46t-45.5 39.5t-47.5 16.5q-104 0 -104 -158h-111zM241 300q0 -92 70 -147t180 -55 q145 0 242.5 87.5t97.5 215.5v126l-319 -23q-271 -19 -271 -204z" />
<glyph unicode="&#xe4;" horiz-adv-x="1125" d="M106 298q0 140 100 220.5t288 93.5l337 22v104q0 116 -68.5 178t-199.5 62q-111 0 -186.5 -44.5t-94.5 -122.5h-133q19 128 133.5 206t284.5 78q189 0 292.5 -93.5t103.5 -262.5v-739h-126v185h-12q-49 -96 -143 -149.5t-213 -53.5q-160 0 -261.5 86.5t-101.5 229.5z M241 300q0 -92 70 -147t180 -55q145 0 242.5 87.5t97.5 215.5v126l-319 -23q-271 -19 -271 -204zM283 1330q0 43 30 72.5t72 29.5q43 0 72.5 -29.5t29.5 -72.5t-29.5 -72.5t-72.5 -29.5q-42 0 -72 29.5t-30 72.5zM647 1330q0 43 30 72.5t72 29.5q43 0 72.5 -29.5t29.5 -72.5 t-29.5 -72.5t-72.5 -29.5q-42 0 -72 29.5t-30 72.5z" />
<glyph unicode="&#xe5;" horiz-adv-x="1125" d="M106 298q0 140 100 220.5t288 93.5l337 22v104q0 116 -68.5 178t-199.5 62q-111 0 -186.5 -44.5t-94.5 -122.5h-133q19 128 133.5 206t284.5 78q189 0 292.5 -93.5t103.5 -262.5v-739h-126v185h-12q-49 -96 -143 -149.5t-213 -53.5q-160 0 -261.5 86.5t-101.5 229.5z M241 300q0 -92 70 -147t180 -55q145 0 242.5 87.5t97.5 215.5v126l-319 -23q-271 -19 -271 -204zM354 1439q0 88 62 149t151 61t151 -61t62 -149q0 -89 -62 -150t-151 -61t-151 61t-62 150zM442 1439q0 -53 36 -89.5t89 -36.5t89 36.5t36 89.5t-36 89t-89 36t-89 -36 t-36 -89z" />
<glyph unicode="&#xe6;" horiz-adv-x="1880" d="M106 295q0 139 99.5 218t287.5 91l338 21v113q0 116 -68.5 178t-199.5 62q-111 0 -186.5 -44.5t-94.5 -122.5h-133q19 128 133.5 206t284.5 78q135 0 228 -60.5t123 -164.5h13q46 99 148.5 162t231.5 63q212 0 333.5 -139.5t121.5 -382.5v-58h-804v-15q5 -182 101 -291.5 t253 -109.5q226 0 300 167h133q-40 -134 -155 -209t-280 -75q-140 0 -249.5 71.5t-154.5 191.5h-12q-48 -123 -158 -193t-260 -70q-167 0 -270.5 85.5t-103.5 227.5zM241 298q0 -91 71 -145.5t185 -54.5q142 0 238 90t96 219v111l-321 -21q-269 -19 -269 -199zM962 622h667 q-2 158 -92 257.5t-232 99.5q-148 0 -240.5 -97t-102.5 -260z" />
<glyph unicode="&#xe7;" horiz-adv-x="1145" d="M115 542q0 253 131.5 403t353.5 150q180 0 298.5 -94.5t143.5 -240.5h-133q-26 96 -107.5 156.5t-201.5 60.5q-161 0 -255.5 -118t-94.5 -317q0 -202 95 -321.5t255 -119.5q120 0 201.5 55t106.5 154h133q-24 -137 -126 -225t-261 -101l-48 -119q100 0 156.5 -41.5 t56.5 -118.5q0 -81 -63 -131.5t-168 -50.5q-78 0 -143 20v87q50 -18 127 -18q60 0 96 24t36 66q0 81 -155 81h-55v67l55 134q-201 18 -317.5 167.5t-116.5 390.5z" />
<glyph unicode="&#xe8;" horiz-adv-x="1174" d="M115 538q0 254 130.5 405.5t350.5 151.5q215 0 339 -143t124 -390v-58h-809v-6q5 -183 99.5 -291t250.5 -108q114 0 194 43.5t115 123.5h133q-40 -132 -158 -208t-287 -76q-222 0 -352 150.5t-130 405.5zM251 612h671q-2 167 -91.5 267t-235.5 100q-147 0 -241 -100.5 t-103 -266.5zM274 1594h168l250 -327h-149z" />
<glyph unicode="&#xe9;" horiz-adv-x="1174" d="M115 538q0 254 130.5 405.5t350.5 151.5q215 0 339 -143t124 -390v-58h-809v-6q5 -183 99.5 -291t250.5 -108q114 0 194 43.5t115 123.5h133q-40 -132 -158 -208t-287 -76q-222 0 -352 150.5t-130 405.5zM251 612h671q-2 167 -91.5 267t-235.5 100q-147 0 -241 -100.5 t-103 -266.5zM506 1267l250 327h168l-269 -327h-149z" />
<glyph unicode="&#xea;" horiz-adv-x="1174" d="M115 538q0 254 130.5 405.5t350.5 151.5q215 0 339 -143t124 -390v-58h-809v-6q5 -183 99.5 -291t250.5 -108q114 0 194 43.5t115 123.5h133q-40 -132 -158 -208t-287 -76q-222 0 -352 150.5t-130 405.5zM243 1228l275 332h154l275 -332h-153l-193 243h-12l-193 -243 h-153zM251 612h671q-2 167 -91.5 267t-235.5 100q-147 0 -241 -100.5t-103 -266.5z" />
<glyph unicode="&#xeb;" horiz-adv-x="1174" d="M115 538q0 254 130.5 405.5t350.5 151.5q215 0 339 -143t124 -390v-58h-809v-6q5 -183 99.5 -291t250.5 -108q114 0 194 43.5t115 123.5h133q-40 -132 -158 -208t-287 -76q-222 0 -352 150.5t-130 405.5zM251 612h671q-2 167 -91.5 267t-235.5 100q-147 0 -241 -100.5 t-103 -266.5zM311 1330q0 43 30 72.5t72 29.5q43 0 72.5 -29.5t29.5 -72.5t-29.5 -72.5t-72.5 -29.5q-42 0 -72 29.5t-30 72.5zM675 1330q0 43 30 72.5t72 29.5q43 0 72.5 -29.5t29.5 -72.5t-29.5 -72.5t-72.5 -29.5q-42 0 -72 29.5t-30 72.5z" />
<glyph unicode="&#xec;" horiz-adv-x="480" d="M-81 1594h168l250 -327h-149zM175 0v1077h131v-1077h-131z" />
<glyph unicode="&#xed;" horiz-adv-x="480" d="M151 1267l250 327h168l-269 -327h-149zM175 0v1077h131v-1077h-131z" />
<glyph unicode="&#xee;" horiz-adv-x="480" d="M-112 1228l275 332h154l275 -332h-153l-193 243h-12l-193 -243h-153zM175 0v1077h131v-1077h-131z" />
<glyph unicode="&#xef;" horiz-adv-x="480" d="M-44 1330q0 43 30 72.5t72 29.5q43 0 72.5 -29.5t29.5 -72.5t-29.5 -72.5t-72.5 -29.5q-42 0 -72 29.5t-30 72.5zM175 0v1077h131v-1077h-131zM320 1330q0 43 30 72.5t72 29.5q43 0 72.5 -29.5t29.5 -72.5t-29.5 -72.5t-72.5 -29.5q-42 0 -72 29.5t-30 72.5z" />
<glyph unicode="&#xf0;" horiz-adv-x="1192" d="M115 525q0 235 126.5 382.5t329.5 147.5q112 0 207 -53t137 -140h12q-51 220 -200 393l-283 -102l-29 88l247 89q-74 78 -215 180h164q95 -66 166 -141l257 92l29 -88l-225 -81q116 -145 176.5 -330.5t60.5 -395.5q0 -269 -128 -426.5t-346 -157.5q-223 0 -354.5 147.5 t-131.5 395.5zM250 525q0 -191 96 -307.5t255 -116.5q157 0 252 115t95 305q0 189 -95.5 302.5t-253.5 113.5q-157 0 -253 -113.5t-96 -298.5z" />
<glyph unicode="&#xf1;" horiz-adv-x="1192" d="M169 0v1077h125v-194h13q43 101 132 156.5t216 55.5q180 0 278.5 -103.5t98.5 -291.5v-700h-131v667q0 310 -281 310q-143 0 -231.5 -92.5t-88.5 -244.5v-640h-131zM260 1230q0 121 56 191.5t153 70.5q43 0 79 -16.5t60.5 -39.5t46.5 -46t45.5 -39.5t47.5 -16.5 q104 0 104 158h110q0 -121 -56 -191.5t-153 -70.5q-42 0 -78.5 16.5t-60.5 39.5t-46 46t-45.5 39.5t-47.5 16.5q-104 0 -104 -158h-111z" />
<glyph unicode="&#xf2;" horiz-adv-x="1208" d="M115 539q0 258 131.5 407t357.5 149t358 -149t132 -407t-132 -407.5t-358 -149.5t-357.5 149.5t-131.5 407.5zM250 539q0 -205 94 -321.5t260 -116.5t260 116.5t94 321.5t-94 321.5t-260 116.5t-260 -116.5t-94 -321.5zM283 1594h168l250 -327h-149z" />
<glyph unicode="&#xf3;" horiz-adv-x="1208" d="M115 539q0 258 131.5 407t357.5 149t358 -149t132 -407t-132 -407.5t-358 -149.5t-357.5 149.5t-131.5 407.5zM250 539q0 -205 94 -321.5t260 -116.5t260 116.5t94 321.5t-94 321.5t-260 116.5t-260 -116.5t-94 -321.5zM515 1267l250 327h168l-269 -327h-149z" />
<glyph unicode="&#xf4;" horiz-adv-x="1208" d="M115 539q0 258 131.5 407t357.5 149t358 -149t132 -407t-132 -407.5t-358 -149.5t-357.5 149.5t-131.5 407.5zM250 539q0 -205 94 -321.5t260 -116.5t260 116.5t94 321.5t-94 321.5t-260 116.5t-260 -116.5t-94 -321.5zM252 1228l275 332h154l275 -332h-153l-193 243h-12 l-193 -243h-153z" />
<glyph unicode="&#xf5;" horiz-adv-x="1208" d="M115 539q0 258 131.5 407t357.5 149t358 -149t132 -407t-132 -407.5t-358 -149.5t-357.5 149.5t-131.5 407.5zM250 539q0 -205 94 -321.5t260 -116.5t260 116.5t94 321.5t-94 321.5t-260 116.5t-260 -116.5t-94 -321.5zM253 1230q0 121 56 191.5t153 70.5q43 0 79 -16.5 t60.5 -39.5t46.5 -46t45.5 -39.5t47.5 -16.5q104 0 104 158h110q0 -121 -56 -191.5t-153 -70.5q-42 0 -78.5 16.5t-60.5 39.5t-46 46t-45.5 39.5t-47.5 16.5q-104 0 -104 -158h-111z" />
<glyph unicode="&#xf6;" horiz-adv-x="1208" d="M115 539q0 258 131.5 407t357.5 149t358 -149t132 -407t-132 -407.5t-358 -149.5t-357.5 149.5t-131.5 407.5zM250 539q0 -205 94 -321.5t260 -116.5t260 116.5t94 321.5t-94 321.5t-260 116.5t-260 -116.5t-94 -321.5zM320 1330q0 43 30 72.5t72 29.5q43 0 72.5 -29.5 t29.5 -72.5t-29.5 -72.5t-72.5 -29.5q-42 0 -72 29.5t-30 72.5zM684 1330q0 43 30 72.5t72 29.5q43 0 72.5 -29.5t29.5 -72.5t-29.5 -72.5t-72.5 -29.5q-42 0 -72 29.5t-30 72.5z" />
<glyph unicode="&#xf7;" d="M169 523v114h983v-114h-983zM554 223q0 46 30.5 76.5t76.5 30.5q45 0 75.5 -30.5t30.5 -76.5t-30.5 -76.5t-75.5 -30.5q-46 0 -76.5 30.5t-30.5 76.5zM554 929q0 46 30.5 76t76.5 30q45 0 75.5 -30t30.5 -76t-30.5 -76.5t-75.5 -30.5q-46 0 -76.5 30.5t-30.5 76.5z" />
<glyph unicode="&#xf8;" horiz-adv-x="1208" d="M115 539q0 258 131.5 407t357.5 149q159 0 276 -77l82 116l79 -51l-89 -126q142 -150 142 -418q0 -258 -132 -407.5t-358 -149.5q-164 0 -282 82l-85 -121l-82 55l93 131q-133 152 -133 410zM250 539q0 -185 77 -299l480 676q-84 61 -203 61q-166 0 -260 -116.5 t-94 -321.5zM395 167q86 -66 209 -66q166 0 260 116.5t94 321.5q0 193 -83 308z" />
<glyph unicode="&#xf9;" horiz-adv-x="1193" d="M160 377v700h131v-667q0 -151 70.5 -229.5t208.5 -78.5q150 0 236.5 90.5t86.5 244.5v640h131v-1077h-125v194h-12q-41 -101 -132 -156.5t-219 -55.5q-179 0 -277.5 104.5t-98.5 290.5zM271 1594h168l250 -327h-149z" />
<glyph unicode="&#xfa;" horiz-adv-x="1193" d="M160 377v700h131v-667q0 -151 70.5 -229.5t208.5 -78.5q150 0 236.5 90.5t86.5 244.5v640h131v-1077h-125v194h-12q-41 -101 -132 -156.5t-219 -55.5q-179 0 -277.5 104.5t-98.5 290.5zM503 1267l250 327h168l-269 -327h-149z" />
<glyph unicode="&#xfb;" horiz-adv-x="1193" d="M160 377v700h131v-667q0 -151 70.5 -229.5t208.5 -78.5q150 0 236.5 90.5t86.5 244.5v640h131v-1077h-125v194h-12q-41 -101 -132 -156.5t-219 -55.5q-179 0 -277.5 104.5t-98.5 290.5zM240 1228l275 332h154l275 -332h-153l-193 243h-12l-193 -243h-153z" />
<glyph unicode="&#xfc;" horiz-adv-x="1193" d="M160 377v700h131v-667q0 -151 70.5 -229.5t208.5 -78.5q150 0 236.5 90.5t86.5 244.5v640h131v-1077h-125v194h-12q-41 -101 -132 -156.5t-219 -55.5q-179 0 -277.5 104.5t-98.5 290.5zM308 1330q0 43 30 72.5t72 29.5q43 0 72.5 -29.5t29.5 -72.5t-29.5 -72.5 t-72.5 -29.5q-42 0 -72 29.5t-30 72.5zM672 1330q0 43 30 72.5t72 29.5q43 0 72.5 -29.5t29.5 -72.5t-29.5 -72.5t-72.5 -29.5q-42 0 -72 29.5t-30 72.5z" />
<glyph unicode="&#xfd;" horiz-adv-x="1079" d="M67 1077h142l326 -934h12l325 934h140l-419 -1129q-72 -194 -144 -261.5t-204 -67.5q-27 0 -61 4v114q20 -4 59 -4q74 0 120 43t86 150l22 67zM447 1267l250 327h168l-269 -327h-149z" />
<glyph unicode="&#xfe;" horiz-adv-x="1252" d="M179 -371v1867h125v-639h12q50 111 148 174.5t221 63.5q205 0 329 -152.5t124 -403.5t-124.5 -404t-328.5 -153q-125 0 -221.5 59.5t-141.5 163.5h-12v-576h-131zM306 539q0 -198 96 -318t254 -120q160 0 253.5 118t93.5 319q0 202 -93.5 320.5t-252.5 118.5 q-158 0 -254.5 -120t-96.5 -318z" />
<glyph unicode="&#xff;" horiz-adv-x="1079" d="M67 1077h142l326 -934h12l325 934h140l-419 -1129q-72 -194 -144 -261.5t-204 -67.5q-27 0 -61 4v114q20 -4 59 -4q74 0 120 43t86 150l22 67zM252 1330q0 43 30 72.5t72 29.5q43 0 72.5 -29.5t29.5 -72.5t-29.5 -72.5t-72.5 -29.5q-42 0 -72 29.5t-30 72.5zM616 1330 q0 43 30 72.5t72 29.5q43 0 72.5 -29.5t29.5 -72.5t-29.5 -72.5t-72.5 -29.5q-42 0 -72 29.5t-30 72.5z" />
<glyph unicode="&#x152;" horiz-adv-x="2321" d="M127 722q0 345 174.5 548t472.5 203q173 0 315 -88t208 -237h12v295h872v-124h-748v-519h711v-122h-711v-554h748v-124h-872v302h-12q-66 -153 -207 -242.5t-316 -89.5q-299 0 -473 202.5t-174 549.5zM267 722q0 -289 140 -457t381 -168q234 0 370 168t136 457 t-136 456.5t-370 167.5q-240 0 -380.5 -168t-140.5 -456z" />
<glyph unicode="&#x153;" horiz-adv-x="2018" d="M115 539q0 257 131.5 407t357.5 150q148 0 260 -77t156 -208h13q44 131 153.5 207.5t252.5 76.5q214 0 339 -143.5t125 -389.5v-57h-808v-6q4 -182 99 -291t250 -109q114 0 194.5 43.5t114.5 123.5h133q-40 -132 -158 -208t-286 -76q-148 0 -261.5 78t-148.5 203h-12 q-35 -126 -150 -203.5t-266 -77.5q-226 0 -357.5 150t-131.5 407zM250 539q0 -205 94 -321.5t260 -116.5t260 116t94 320q0 206 -94.5 323t-259.5 117q-166 0 -260 -116.5t-94 -321.5zM1095 613h671q-2 164 -92.5 265t-235.5 101q-146 0 -239.5 -100t-103.5 -266z" />
<glyph unicode="&#x178;" d="M75 1443h157l423 -680h12l423 680h156l-517 -819v-624h-136v624zM377 1670q0 43 30 72.5t72 29.5q43 0 72.5 -29.5t29.5 -72.5t-29.5 -72.5t-72.5 -29.5q-42 0 -72 29.5t-30 72.5zM741 1670q0 43 30 72.5t72 29.5q43 0 72.5 -29.5t29.5 -72.5t-29.5 -72.5t-72.5 -29.5 q-42 0 -72 29.5t-30 72.5z" />
<glyph unicode="&#x2c6;" horiz-adv-x="1000" d="M148 1228l275 332h154l275 -332h-153l-193 243h-12l-193 -243h-153z" />
<glyph unicode="&#x2dc;" horiz-adv-x="999" d="M148 1252q0 121 56 191.5t153 70.5q43 0 79 -16.5t60.5 -39.5t46.5 -46t45.5 -39.5t47.5 -16.5q104 0 104 158h110q0 -121 -56 -191.5t-153 -70.5q-42 0 -78.5 16.5t-60.5 39.5t-46 46t-45.5 39.5t-47.5 16.5q-104 0 -104 -158h-111z" />
<glyph unicode="&#x2000;" horiz-adv-x="966" />
<glyph unicode="&#x2001;" horiz-adv-x="1933" />
<glyph unicode="&#x2002;" horiz-adv-x="966" />
<glyph unicode="&#x2003;" horiz-adv-x="1933" />
<glyph unicode="&#x2004;" horiz-adv-x="644" />
<glyph unicode="&#x2005;" horiz-adv-x="483" />
<glyph unicode="&#x2006;" horiz-adv-x="322" />
<glyph unicode="&#x2007;" horiz-adv-x="322" />
<glyph unicode="&#x2008;" horiz-adv-x="241" />
<glyph unicode="&#x2009;" horiz-adv-x="386" />
<glyph unicode="&#x200a;" horiz-adv-x="107" />
<glyph unicode="&#x2010;" horiz-adv-x="975" d="M159 520v124h656v-124h-656z" />
<glyph unicode="&#x2011;" horiz-adv-x="975" d="M159 520v124h656v-124h-656z" />
<glyph unicode="&#x2012;" horiz-adv-x="975" d="M159 520v124h656v-124h-656z" />
<glyph unicode="&#x2013;" horiz-adv-x="1024" d="M0 520v124h1024v-124h-1024z" />
<glyph unicode="&#x2014;" horiz-adv-x="2048" d="M0 520v124h2048v-124h-2048z" />
<glyph unicode="&#x2018;" horiz-adv-x="548" d="M141 932l160 511h98l-111 -511h-147z" />
<glyph unicode="&#x2019;" horiz-adv-x="548" d="M163 932l103 511h147l-152 -511h-98z" />
<glyph unicode="&#x201a;" horiz-adv-x="548" d="M158 -349l100 532h144l-143 -532h-101z" />
<glyph unicode="&#x201c;" horiz-adv-x="904" d="M139 911l159 532h101l-116 -532h-144zM498 911l143 532h101l-100 -532h-144z" />
<glyph unicode="&#x201d;" horiz-adv-x="904" d="M162 911l100 532h144l-144 -532h-100zM505 911l115 532h144l-158 -532h-101z" />
<glyph unicode="&#x201e;" horiz-adv-x="904" d="M162 -349l100 532h144l-144 -532h-100zM505 -349l115 532h144l-158 -532h-101z" />
<glyph unicode="&#x2022;" horiz-adv-x="1037" d="M254 559q0 111 77 187.5t187 76.5q111 0 188 -76.5t77 -187.5t-77 -188t-188 -77q-110 0 -187 77t-77 188z" />
<glyph unicode="&#x2026;" horiz-adv-x="1626" d="M191 97q0 44 31 75t75 31t74.5 -31t30.5 -75t-30.5 -74.5t-74.5 -30.5t-75 30.5t-31 74.5zM708 97q0 44 31 75t75 31t74.5 -31t30.5 -75t-30.5 -74.5t-74.5 -30.5t-75 30.5t-31 74.5zM1217 97q0 44 30.5 75t74.5 31t75 -31t31 -75t-31 -74.5t-75 -30.5t-74.5 31t-30.5 74 z" />
<glyph unicode="&#x202f;" horiz-adv-x="386" />
<glyph unicode="&#x2039;" horiz-adv-x="912" d="M185 563v6l359 414h157l-357 -411v-13l357 -410h-157z" />
<glyph unicode="&#x203a;" horiz-adv-x="912" d="M211 149l357 410v13l-357 411h157l358 -414v-6l-358 -414h-157z" />
<glyph unicode="&#x205f;" horiz-adv-x="483" />
<glyph unicode="&#x20ac;" d="M99 515v106h218q-5 53 -5 100t5 100h-218v105h234q56 260 244 400t443 140q116 0 180 -19v-124q-68 16 -180 16q-200 0 -346 -107t-198 -306h558v-105h-577q-5 -53 -5 -100t5 -100h577v-106h-557q51 -199 197 -305.5t346 -106.5q125 0 180 16v-124q-61 -18 -180 -18 q-167 0 -307 59t-241 182.5t-139 296.5h-234z" />
<glyph unicode="&#x2122;" horiz-adv-x="1956" d="M54 1339v104h730v-104h-306v-784h-118v784h-306zM936 555v888h139l286 -710h8l285 710h139v-888h-111v682h-6l-267 -659h-88l-267 659h-7v-682h-111z" />
<glyph unicode="&#x25fc;" horiz-adv-x="1075" d="M0 0v1075h1075v-1075h-1075z" />
<glyph unicode="&#xfb01;" horiz-adv-x="1199" d="M62 966v111h179v138q0 149 74 225t215 76q59 0 106 -10v-108q-32 6 -81 6q-183 0 -183 -192v-135h254v-111h-254v-966h-131v966h-179zM861 1415q0 40 28.5 68.5t68.5 28.5t69 -28.5t29 -68.5q0 -41 -29 -69.5t-69 -28.5t-68.5 29t-28.5 69zM893 0v1077h131v-1077h-131z " />
<glyph unicode="&#xfb02;" horiz-adv-x="1207" d="M62 966v111h179v138q0 149 74 225t215 76q59 0 106 -10v-108q-32 6 -81 6q-183 0 -183 -192v-135h254v-111h-254v-966h-131v966h-179zM897 0v1506h131v-1506h-131z" />
</font>
</defs>
</svg>
